[Цитировать]
Kryl

«Somewhere... somehow... someone's going to pay!»- Информация о фильме
Название: Коммандоc
Оригинальное название: Commando
Год выхода: 1985
Жанр: Боевик, триллер
Режиссер: Марк Л. Лестер
Продюсер: Джоэл Силвер, Стефани Броди, Роберт Косберг
Сценарий: Стивен Е. де Соуза, Джозеф Лоуб III, Мэтью Уайсмен
В ролях:
Арнольд Шварценеггер, Рей Дон Чон, Дэн Хедайя, Вернон Уэллс, Джеймс Олсон, Дэвид Патрик Келли, Алисса Милано, Билл Дьюк, Дрю Снайдер, Шарон Уайатт, Майкл Делано, Боб Майнор, Майкл Адамс, Гэри Сервантес, Ленни Джулиано, Чарльз Мешак, Челси Филд, Джули Хайек, Хэнк Калиа, Уолтер Скотт, Грег Уэйн Элам, Джордж Фишер, Фил Эдамс, Ава Каделл, Микул Робинс, Брэнском Ричмонд, Мэтт Лэндерс, Питер, Том Симмонс, Билл Пэкстон, Ричард Ройс, Джон Рейс, Билли Карденас, Эдвард Рейс, Вивиан Дэйли, Томас Розалес мл.
----О фильме:
Бывший командир спецотряда, участвовавшего в секретных операциях на Ближнем Востоке, СССР и Центральной Америке, полковник в отставке Джон Матрикс, под другим именем, живёт в большом доме, вдали от города, вместе со своей одиннадцатилетней дочерью Дженни, пока её не похищает бывший товарищ Джона…- - Страна: США
Продолжительность: 01:30:16
--Файл
Кодек: MPEG4/ISO/AVC H.264
Формат: MKV
Качество: BDRip 720p
Видео: 1280x694 | 59.940 fps | 11.8 Мбит/сек-- Аудио 1: AC3 | 5.1 | 48 kHz | 448 kbps | 16 bit | Киномания | (многоголосый закадровый)
Аудио 2: AC3 | 2.0 | 48 kHz | 192 kbps | 16 bit | R5 (многоголосый закадровый) |
Аудио 3: AC3 | 5.1 | 48 kHz | 448 kbps | 16 bit | ОРТ (многоголосый закадровый) |
Аудио 4: AC3 | 5.1 | 48 kHz | 448 kbps | 16 bit | П. Гланц и И. Королева (двухголосый закадровый) |
Аудио 5: AC3 | 5.1 | 48 kHz | 448 kbps | 16 bit | А.Гаврилов (одноголосый закадровый) |
Аудио 6: AC3 | 2.0 | 48 kHz | 192 kbps | 16 bit | В.Горчаков (одноголосый закадровый) |
Аудио 7: AC3 | 2.0 | 48 kHz | 192 kbps | 16 bit | Ю. Толбин(одноголосый закадровый) |
Аудио 8: AC3 | 5.1 | 48 kHz | 448 kbps | 16 bit | Б. Федоров(одноголосый закадровый)
Аудио 9: AC3 | 5.1 | 48 kHz | 448 kbps | 16 bit | Гоблин - Полный Пэ(одноголосый закадровый) ненормативная лексика |
Аудио 10: AC3 | 5.1 | 48 kHz | 448 kbps | 16 bit |английский|
Субтитры: Русские | Полные (2 вида), Английские | Полные

MedifInfo

Video
ID : 1
Format : AVC
Format/Info : Advanced Video Codec
Format profile : High@L4.1
Format settings, CABAC : Yes
Format settings, ReFrames : 9 frames
Codec ID : V_MPEG4/ISO/AVC
Duration : 1h 30mn
Bit rate : 11.8 Mbps
Width : 1 280 pixels
Height : 694 pixels
Display aspect ratio : 1.85:1
Frame rate mode : Constant
Frame rate : 59.880 fps
Original frame rate : 59.940 fps
Color space : YUV
Chroma subsampling : 4:2:0
Bit depth : 8 bits
Scan type : Progressive
Bits/(Pixel*Frame) : 0.222
Stream size : 7.44 GiB (75%)
Writing library : x264 core 130 r2273 b3065e6
Encoding settings : cabac=1 / ref=9 / deblock=1:0:0 / analyse=0x3:0x133 / me=umh / subme=11 / psy=1 / psy_rd=1.00:0.00 / mixed_ref=1 / me_range=32 / chroma_me=1 / trellis=2 / 8x8dct=1 / cqm=0 / deadzone=21,11 / fast_pskip=0 / chroma_qp_offset=-2 / threads=12 / lookahead_threads=2 / sliced_threads=0 / nr=0 / decimate=1 / interlaced=0 / bluray_compat=0 / constrained_intra=0 / bframes=8 / b_pyramid=2 / b_adapt=2 / b_bias=0 / direct=3 / weightb=1 / open_gop=0 / weightp=2 / keyint=250 / keyint_min=25 / scenecut=40 / intra_refresh=0 / rc=crf / mbtree=0 / crf=18.0 / qcomp=0.60 / qpmin=0 / qpmax=69 / qpstep=4 / ip_ratio=1.40 / pb_ratio=1.30 / aq=2:1.00
Language : English
Default : Yes
Forced : No
Audio #1
ID : 2
Format : AC-3
Format/Info : Audio Coding 3
Mode extension : CM (complete main)
Format settings, Endianness : Big
Codec ID : A_AC3
Duration : 1h 30mn
Bit rate mode : Constant
Bit rate : 448 Kbps
Channel(s) : 6 channels
Channel positions : Front: L C R, Side: L R, LFE
Sampling rate : 48.0 KHz
Bit depth : 16 bits
Compression mode : Lossy
Stream size : 289 MiB (3%)
Title : MVO Kinomanija
Language : Russian
Default : Yes
Forced : No
Audio #2
ID : 3
Format : AC-3
Format/Info : Audio Coding 3
Mode extension : CM (complete main)
Format settings, Endianness : Big
Codec ID : A_AC3
Duration : 1h 30mn
Bit rate mode : Constant
Bit rate : 192 Kbps
Channel(s) : 2 channels
Channel positions : Front: L R
Sampling rate : 48.0 KHz
Bit depth : 16 bits
Compression mode : Lossy
Stream size : 124 MiB (1%)
Title : MVO R5
Language : Russian
Default : No
Forced : No
Audio #3
ID : 4
Format : AC-3
Format/Info : Audio Coding 3
Mode extension : CM (complete main)
Format settings, Endianness : Big
Codec ID : A_AC3
Duration : 1h 30mn
Bit rate mode : Constant
Bit rate : 448 Kbps
Channel(s) : 6 channels
Channel positions : Front: L C R, Side: L R, LFE
Sampling rate : 48.0 KHz
Bit depth : 16 bits
Compression mode : Lossy
Stream size : 289 MiB (3%)
Title : MVO OPT
Language : Russian
Default : No
Forced : No
Audio #4
ID : 5
Format : AC-3
Format/Info : Audio Coding 3
Mode extension : CM (complete main)
Format settings, Endianness : Big
Codec ID : A_AC3
Duration : 1h 30mn
Bit rate mode : Constant
Bit rate : 448 Kbps
Channel(s) : 6 channels
Channel positions : Front: L C R, Side: L R, LFE
Sampling rate : 48.0 KHz
Bit depth : 16 bits
Compression mode : Lossy
Stream size : 289 MiB (3%)
Title : DVO Glanc i Koroleva
Language : Russian
Default : No
Forced : No
Audio #5
ID : 6
Format : AC-3
Format/Info : Audio Coding 3
Mode extension : CM (complete main)
Format settings, Endianness : Big
Codec ID : A_AC3
Duration : 1h 30mn
Bit rate mode : Constant
Bit rate : 448 Kbps
Channel(s) : 6 channels
Channel positions : Front: L C R, Side: L R, LFE
Sampling rate : 48.0 KHz
Bit depth : 16 bits
Compression mode : Lossy
Stream size : 289 MiB (3%)
Title : AVO Gavrilov
Language : Russian
Default : No
Forced : No
Audio #6
ID : 7
Format : AC-3
Format/Info : Audio Coding 3
Mode extension : CM (complete main)
Format settings, Endianness : Big
Codec ID : A_AC3
Duration : 1h 30mn
Bit rate mode : Constant
Bit rate : 192 Kbps
Channel(s) : 2 channels
Channel positions : Front: L R
Sampling rate : 48.0 KHz
Bit depth : 16 bits
Compression mode : Lossy
Stream size : 124 MiB (1%)
Title : AVO Gorchakov
Language : Russian
Default : No
Forced : No
Audio #7
ID : 8
Format : AC-3
Format/Info : Audio Coding 3
Mode extension : CM (complete main)
Format settings, Endianness : Big
Codec ID : A_AC3
Duration : 1h 30mn
Bit rate mode : Constant
Bit rate : 192 Kbps
Channel(s) : 2 channels
Channel positions : Front: L R
Sampling rate : 48.0 KHz
Bit depth : 16 bits
Compression mode : Lossy
Stream size : 124 MiB (1%)
Title : AVO Tolbin
Language : Russian
Default : No
Forced : No
Audio #8
ID : 9
Format : AC-3
Format/Info : Audio Coding 3
Mode extension : CM (complete main)
Format settings, Endianness : Big
Codec ID : A_AC3
Duration : 1h 30mn
Bit rate mode : Constant
Bit rate : 448 Kbps
Channel(s) : 6 channels
Channel positions : Front: L C R, Side: L R, LFE
Sampling rate : 48.0 KHz
Bit depth : 16 bits
Compression mode : Lossy
Stream size : 289 MiB (3%)
Title : AVO Fedorov
Language : Russian
Default : No
Forced : No
Audio #9
ID : 10
Format : AC-3
Format/Info : Audio Coding 3
Mode extension : CM (complete main)
Format settings, Endianness : Big
Codec ID : A_AC3
Duration : 1h 30mn
Bit rate mode : Constant
Bit rate : 448 Kbps
Channel(s) : 6 channels
Channel positions : Front: L C R, Side: L R, LFE
Sampling rate : 48.0 KHz
Bit depth : 16 bits
Compression mode : Lossy
Stream size : 289 MiB (3%)
Title : AVO Goblin
Language : Russian
Default : No
Forced : No
Audio #10
ID : 11
Format : AC-3
Format/Info : Audio Coding 3
Mode extension : CM (complete main)
Format settings, Endianness : Big
Codec ID : A_AC3
Duration : 1h 30mn
Bit rate mode : Constant
Bit rate : 448 Kbps
Channel(s) : 6 channels
Channel positions : Front: L C R, Side: L R, LFE
Sampling rate : 48.0 KHz
Bit depth : 16 bits
Compression mode : Lossy
Stream size : 289 MiB (3%)
Title : Eng
Language : English
Default : No
Forced : No
Text #1
ID : 12
Format : UTF-8
Codec ID : S_TEXT/UTF8
Codec ID/Info : UTF-8 Plain Text
Title : R5 full
Language : Russian
Default : No
Forced : No
Text #2
ID : 13
Format : UTF-8
Codec ID : S_TEXT/UTF8
Codec ID/Info : UTF-8 Plain Text
Title : Puchkov full
Language : Russian
Default : No
Forced : No
Text #3
ID : 14
Format : UTF-8
Codec ID : S_TEXT/UTF8
Codec ID/Info : UTF-8 Plain Text
Title : English full
Language : English
Default : No
Forced : No
Menu
00:00:00.000 : :Chapter 01
00:04:14.837 : :Chapter 02
00:08:16.078 : :Chapter 03
00:11:26.352 : :Chapter 04
00:16:35.703 : :Chapter 05
00:19:16.780 : :Chapter 06
00:22:46.948 : :Chapter 07
00:26:42.267 : :Chapter 08
00:29:03.241 : :Chapter 09
00:32:14.766 : :Chapter 10
00:37:39.799 : :Chapter 11
00:43:59.219 : :Chapter 12
00:49:14.993 : :Chapter 13
00:53:45.889 : :Chapter 14
00:56:32.347 : :Chapter 15
00:59:14.509 : :Chapter 16
01:04:45.381 : :Chapter 17
01:06:58.556 : :Chapter 18
01:10:21.967 : :Chapter 19
01:12:52.618 : :Chapter 20
01:17:48.246 : :Chapter 21
01:19:48.200 : :Chapter 22
01:24:37.363 : :Chapter 23
01:26:55.293 : :Chapter 24

Релиз подготовлен 60 - fps



Последний раз редактировалось: Kryl (2015-10-23 14:04), всего редактировалось 2 раз(а)

[Цитировать]
Fragrance

класс)
 
Показать сообщения:    

Текущее время: 11-Дек 07:06

Часовой пояс: UTC + 3


Вы не можете начинать темы
Вы не можете отвечать на сообщения
Вы не можете редактировать свои сообщения
Вы не можете удалять свои сообщения
Вы не можете голосовать в опросах
Вы не можете прикреплять файлы к сообщениям
Вы не можете скачивать файлы