[Цитировать]
Kryl

«План 'Б' не предусмотрен»- Информация
Название: Команда «А»
Оригинальное название: The A-Team
Год выхода: 2010
Жанр: боевик, триллер, комедия, приключения
Режиссер: Джо Карнахан
Сценарий: ЧДжо Карнахан, Брайан Блум, Скип Вудс
Продюсер: Стефен Дж. Кэннел, Джулс Дэйли, Тони Скотт
В ролях: Лиам Нисон, Брэдли Купер, Шарлто Копли, Куинтон Джексон, Джессика Бил, Патрик Уилсон, Джералд МакРэйни, Генри Черни, Юл Васкес, Брайан Блум
--Сюжет:
Группа ветеранов войны в Ираке, несправедливо обвиненных в преступлении, пытается найти истинных виновников и вернуть себе честное имя.- Страна: США
Продолжительность: 02:13:33

Файл
Кодек: MPEG4/ISO/AVC H.264
Формат: MKV
Качество: BDRip 720p | 60 fps
Видео: 1280 x 544 (2.353) | 59.940 fps | 10.0 Мбит/сек
Аудио 1: AC3 | 5.1 | 48 kHz | 640 kbps | 16 bit | Дубляж |
Аудио 2: AC3 | 2.0 | 48 kHz | 448 kbps | 16 bit | Многоголосый закадровый, 1-й канал |
Аудио 3: AC3 | 5.1 | 48 kHz | 640 kbps | 16 bit | Авторский, А.Гаврилов |
Аудио 4: AC3 | 5.1 | 48 kHz | 448 kbps | 16 bit | Любительский, Acolith |
Аудио 5: AC3 | 5.1 | 48 kHz | 448 kbps | 16 bit | Украинский |
Аудио 6: AC3 | 5.1 | 48 kHz | 640 kbps | 16 bit | ENG |
Субтитры: Russian (Forced)x2, Russian (Full)x2, English (Forced + Full + SDH + SDH-Colored)

MedifInfo

Видео
Идентификатор : 1
Формат : AVC
Формат/Информация : Advanced Video Codec
Профиль формата : High@L4.1
Параметр CABAC формата : Да
Параметр ReFrames формата : 3 кадра
Идентификатор кодека : V_MPEG4/ISO/AVC
Продолжительность : 2 ч. 13 м.
Вид битрейта : Переменный
Битрейт : 9691 Кбит/сек
Максимальный битрейт : 10000 Кбит/сек
Ширина : 1280 пикселей
Высота : 544 пикселя
Соотношение сторон : 2,35:1
Режим частоты кадров : Постоянный
Частота кадров : 59,880 кадров/сек
Частота кадров в оригинале : 59,940 кадров/сек
Стандарт вещания : PAL
Цветовое пространство : YUV
Субдискретизация насыщенности : 4:2:0
Битовая глубина : 8 бит
Тип развёртки : Прогрессивная
Бит/(Пиксели*Кадры) : 0.232
Размер потока : 9,04 Гбайт (75%)
Заголовок : www.60-fps.org
Язык : English
Default : Да
Forced : Нет
Основные цвета : BT.601 NTSC
Характеристики трансфера : BT.601
Коэффициенты матрицы : BT.601
colour_range : Limited
Аудио #1
Идентификатор : 2
Формат : AC-3
Формат/Информация : Audio Coding 3
Расширение режима : CM (complete main)
Параметр Endianness формата : Big
Идентификатор кодека : A_AC3
Продолжительность : 2 ч. 13 м.
Вид битрейта : Постоянный
Битрейт : 640 Кбит/сек
Каналы : 6 каналов
Расположение каналов : Front: L C R, Side: L R, LFE
Частота : 48,0 КГц
Битовая глубина : 16 бит
Метод сжатия : С потерями
Размер потока : 611 Мбайт (5%)
Заголовок : Дубляж
Язык : Russian
Default : Да
Forced : Нет
Аудио #2
Идентификатор : 3
Формат : AC-3
Формат/Информация : Audio Coding 3
Расширение режима : CM (complete main)
Параметр Endianness формата : Big
Идентификатор кодека : A_AC3
Продолжительность : 2 ч. 13 м.
Вид битрейта : Постоянный
Битрейт : 192 Кбит/сек
Каналы : 2 канала
Расположение каналов : Front: L R
Частота : 48,0 КГц
Битовая глубина : 16 бит
Метод сжатия : С потерями
Размер потока : 183 Мбайт (1%)
Заголовок : MVO | DD 2.0 @ 192 kbps - First channel
Язык : Russian
Default : Нет
Forced : Нет
Аудио #3
Идентификатор : 4
Формат : AC-3
Формат/Информация : Audio Coding 3
Расширение режима : CM (complete main)
Параметр Endianness формата : Big
Идентификатор кодека : A_AC3
Продолжительность : 2 ч. 13 м.
Вид битрейта : Постоянный
Битрейт : 640 Кбит/сек
Каналы : 6 каналов
Расположение каналов : Front: L C R, Side: L R, LFE
Частота : 48,0 КГц
Битовая глубина : 16 бит
Метод сжатия : С потерями
Размер потока : 611 Мбайт (5%)
Заголовок : AVO | DD 5.1 @ 640 kbps - A.Gavrilov
Язык : Russian
Default : Нет
Forced : Нет
Аудио #4
Идентификатор : 5
Формат : AC-3
Формат/Информация : Audio Coding 3
Расширение режима : CM (complete main)
Параметр Endianness формата : Big
Идентификатор кодека : A_AC3
Продолжительность : 2 ч. 13 м.
Вид битрейта : Постоянный
Битрейт : 448 Кбит/сек
Каналы : 6 каналов
Расположение каналов : Front: L C R, Side: L R, LFE
Частота : 48,0 КГц
Битовая глубина : 16 бит
Метод сжатия : С потерями
Размер потока : 428 Мбайт (3%)
Заголовок : AVO | DD 5.1 @ 448 kbps - Acolith
Язык : Russian
Default : Нет
Forced : Нет
Аудио #5
Идентификатор : 6
Формат : AC-3
Формат/Информация : Audio Coding 3
Расширение режима : CM (complete main)
Параметр Endianness формата : Big
Идентификатор кодека : A_AC3
Продолжительность : 2 ч. 13 м.
Вид битрейта : Постоянный
Битрейт : 448 Кбит/сек
Каналы : 6 каналов
Расположение каналов : Front: L C R, Side: L R, LFE
Частота : 48,0 КГц
Битовая глубина : 16 бит
Метод сжатия : С потерями
Размер потока : 428 Мбайт (3%)
Заголовок : Dub | DD 5.1 @ 448 kbps - Blu-ray CEE
Язык : Ukrainian
Default : Нет
Forced : Нет
Аудио #6
Идентификатор : 7
Формат : AC-3
Формат/Информация : Audio Coding 3
Расширение режима : CM (complete main)
Параметр Endianness формата : Big
Идентификатор кодека : A_AC3
Продолжительность : 2 ч. 13 м.
Вид битрейта : Постоянный
Битрейт : 640 Кбит/сек
Каналы : 6 каналов
Расположение каналов : Front: L C R, Side: L R, LFE
Частота : 48,0 КГц
Битовая глубина : 16 бит
Метод сжатия : С потерями
Размер потока : 611 Мбайт (5%)
Заголовок : Original | DD 5.1 @ 640 kbps
Язык : English
Default : Нет
Forced : Нет
Текст #1
Идентификатор : 8
Формат : UTF-8
Идентификатор кодека : S_TEXT/UTF8
Идентификатор кодека/Информация : UTF-8 Plain Text
Заголовок : Forced [Blu-ray]
Язык : Russian
Default : Да
Forced : Нет
Текст #2
Идентификатор : 9
Формат : UTF-8
Идентификатор кодека : S_TEXT/UTF8
Идентификатор кодека/Информация : UTF-8 Plain Text
Заголовок : Forced [Voronine]
Язык : Russian
Default : Нет
Forced : Нет
Текст #3
Идентификатор : 10
Формат : UTF-8
Идентификатор кодека : S_TEXT/UTF8
Идентификатор кодека/Информация : UTF-8 Plain Text
Заголовок : Blu-ray
Язык : Russian
Default : Нет
Forced : Нет
Текст #4
Идентификатор : 11
Формат : UTF-8
Идентификатор кодека : S_TEXT/UTF8
Идентификатор кодека/Информация : UTF-8 Plain Text
Заголовок : Full [Voronine]
Язык : Russian
Default : Нет
Forced : Нет
Текст #5
Идентификатор : 12
Формат : UTF-8
Идентификатор кодека : S_TEXT/UTF8
Идентификатор кодека/Информация : UTF-8 Plain Text
Заголовок : Forced
Язык : English
Default : Нет
Forced : Нет
Текст #6
Идентификатор : 13
Формат : UTF-8
Идентификатор кодека : S_TEXT/UTF8
Идентификатор кодека/Информация : UTF-8 Plain Text
Заголовок : Full
Язык : English
Default : Нет
Forced : Нет
Текст #7
Идентификатор : 14
Формат : UTF-8
Идентификатор кодека : S_TEXT/UTF8
Идентификатор кодека/Информация : UTF-8 Plain Text
Заголовок : SDH
Язык : English
Default : Нет
Forced : Нет
Текст #8
Идентификатор : 15
Формат : UTF-8
Идентификатор кодека : S_TEXT/UTF8
Идентификатор кодека/Информация : UTF-8 Plain Text
Заголовок : SDH-Colored
Язык : English
Default : Нет
Forced : Нет
Меню
00:00:00.000 : en:(01)00:00:00:000
00:05:17.399 : en:(02)00:05:17:399
00:13:31.268 : en:(03)00:13:31:268
00:21:10.769 : en:(04)00:21:10:769
00:26:32.337 : en:(05)00:26:32:337
00:37:42.802 : en:(06)00:37:42:802
00:45:23.554 : en:(07)00:45:23:554
00:49:30.257 : en:(08)00:49:30:257
00:56:53.867 : en:(09)00:56:53:867
01:02:40.547 : en:(10)01:02:40:547
01:09:43.051 : en:(11)01:09:43:051
01:15:19.639 : en:(12)01:15:19:639
01:23:06.354 : en:(13)01:23:06:354
01:28:54.578 : en:(14)01:28:54:578
01:35:56.832 : en:(15)01:35:56:832
01:38:35.951 : en:(16)01:38:35:951
01:43:12.519 : en:(17)01:43:12:519
01:49:42.823 : en:(18)01:49:42:823
01:57:19.573 : en:(19)01:57:19:573
02:07:00.654 : en:(20)02:07:00:654
02:13:33.587 : en:(21)02:13:33:587

Релиз подготовлен 60 - fps

[Цитировать]
drou

отличная комедия боевик)
 
Показать сообщения:    

Текущее время: 08-Дек 19:08

Часовой пояс: UTC + 3


Вы не можете начинать темы
Вы не можете отвечать на сообщения
Вы не можете редактировать свои сообщения
Вы не можете удалять свои сообщения
Вы не можете голосовать в опросах
Вы не можете прикреплять файлы к сообщениям
Вы не можете скачивать файлы