Тор: Рагнарёк / Thor: Ragnarok (2017) BDRip 1080p | 60 fps Стражи Галактики. Часть 2 / Guardians of the Galaxy Vol. 2 (2017) BDRip 1080p | 60 fps Мстители: Эра Альтрона / Avengers: Age of Ultron (2015) BDRip 1080p | 60 fps Валериан и город тысячи планет / Valerian and the City of a Thousand Planets (2017) BDRip 1080p | 60 fps Первый мститель: Противостояние / Captain America: Civil War (2016) BDRip 1080p | 60 fps Человек-паук: Возвращение домой / Spider-Man: Homecoming (2017) BDRip 1080p | 60 fps Мстители / The Avengers (2012) BDRip 720p | 60 fps Доктор Стрэндж / Doctor Strange (2016) BDRip 1080p | 60 fps
  1. Стаж:
    1 год 10 месяцев
    Сообщений:
    498
    Пол:
    Мужской
    Фильм «Месть бывает прекрасна» Фильм- Информация
    Название: Коломбиана
    Оригинальное название: Colombiana
    Год выхода: 2011
    Жанр: боевик, триллер, драма, криминал
    Режиссер: Оливье Мегатон
    Сценарий: Люк Бессон, Роберт Марк Кэмен
    Продюсер: Люк Бессон, Ариэль Зейтун, Оливье Глаас
    В ролях: Зои Салдана,Хорди Молья,Ленни Джеймс,Амандла Стенберг,Майкл Вартан,Клифф Кёртис,Бето Бенитес,Джесси Боррего,Синтия Аддай-Робинсон,Энджел Гарница
    --Сюжет:
    Кат было всего 9, когда на ее глазах неизвестные жестоко убили её родителей. Девочка сумела убежать от бандитов и найти убежище в Чикаго у своего дяди. Теперь Кат — профессиональная убийца. Во что бы то ни стало она должна распутать клубок давнего преступления и отомстить за смерть родителей. Все следы ведут к колумбийскому наркобарону Дону Лусиа. Единственная нить, соединяющая девушку-убийцу с миром обычных людей — это ее возлюбленный, который не догадывается, чем на самом деле занимается его подружка.-- Страна: Франция
    Продолжительность: 01:51:35

    Файл
    Кодек: MPEG4/ISO/AVC H.264/High@L4.1
    Формат: MKV
    Качество: BDRip 1080p | 60 fps
    Видео: 1920 x 816 (2.353) | 59.940 fps | 24,0 Мбит/сек
    Аудио 1: DTS-HD Maser| 5.1 | 48 kHz | 2130 Кбит/сек / 1509 Кбит/сек | 16 bit | Дубляж (Лицензия)
    Аудио 2: DTS| 5.1 | 48 kHz | 3968 Кбит/сек / 1509 Кбит/сек | 24 bit | АП (Живов)
    Аудио 3: DTS-HD Maser| 5.1 | 48 kHz | 1509 Кбит/сек | 24 bit | АП (Киреев)
    Аудио 4: DTS-HD Maser| 5.1 | 48 kHz | 2940 Кбит/сек / 1509 Кбит/сек | 24 bit | Оригинал
    Субтитры:

    MedifInfo

    Видео
    Идентификатор : 1
    Формат : AVC
    Формат/Информация : Advanced Video Codec
    Профиль формата : High@L4.1
    Параметр CABAC формата : Да
    Параметр ReFrames формата : 5 кадров
    Идентификатор кодека : V_MPEG4/ISO/AVC
    Продолжительность : 1 ч. 51 м.
    Битрейт : 24,0 Мбит/сек
    Ширина : 1920 пикселей
    Высота : 816 пикселей
    Соотношение сторон : 2,35:1
    Режим частоты кадров : Постоянный
    Частота кадров : 59,940 (60000/1001) кадров/сек
    Цветовое пространство : YUV
    Субдискретизация насыщенности : 4:2:0
    Битовая глубина : 8 бит
    Тип развёртки : Прогрессивная
    Бит/(Пиксели*Кадры) : 0.256
    Размер потока : 18,7 Гбайт (69%)
    Заголовок : Талямба: 60-fps.org
    Библиотека кодирования : x264 core 146 r2538 121396c
    Настройки программы : cabac=1 / ref=5 / deblock=1:-3:-3 / analyse=0x3:0x113 / me=umh / subme=8 / psy=1 / psy_rd=1.00:0.25 / mixed_ref=1 / me_range=32 / chroma_me=1 / trellis=1 / 8x8dct=1 / cqm=0 / deadzone=6,6 / fast_pskip=1 / chroma_qp_offset=-4 / threads=12 / lookahead_threads=2 / sliced_threads=0 / nr=0 / decimate=0 / interlaced=0 / bluray_compat=0 / constrained_intra=0 / bframes=3 / b_pyramid=2 / b_adapt=2 / b_bias=0 / direct=3 / weightb=1 / open_gop=0 / weightp=2 / keyint=599 / keyint_min=59 / scenecut=40 / intra_refresh=0 / rc_lookahead=50 / rc=2pass / mbtree=1 / bitrate=24000 / ratetol=1.0 / qcomp=0.80 / qpmin=0 / qpmax=69 / qpstep=4 / cplxblur=20.0 / qblur=0.5 / vbv_maxrate=50000 / vbv_bufsize=50000 / nal_hrd=none / filler=0 / ip_ratio=1.10 / aq=1:0.50
    Язык : English
    Default : Да
    Forced : Нет
    Аудио #1
    Идентификатор : 2
    Формат : DTS
    Формат/Информация : Digital Theater Systems
    Профиль формата : MA / Core
    Режим : 16
    Параметр Endianness формата : Big
    Идентификатор кодека : A_DTS
    Продолжительность : 1 ч. 51 м.
    Вид битрейта : Переменный / Постоянный
    Битрейт : 2130 Кбит/сек / 1509 Кбит/сек
    Каналы : 6 каналов
    Расположение каналов : Front: L C R, Side: L R, LFE
    Частота : 48,0 КГц
    Частота кадров : 93,750 кадра/сек (512 spf)
    Битовая глубина : 16 бит
    Метод сжатия : Без потерь / Lossy
    Размер потока : 1,66 Гбайт (6%)
    Заголовок : Русский DTS-HD MA 2129 - Дубляж
    Язык : Russian
    Default : Да
    Forced : Нет
    Аудио #2
    Идентификатор : 3
    Формат : DTS
    Формат/Информация : Digital Theater Systems
    Профиль формата : MA / Core
    Режим : 16
    Параметр Endianness формата : Big
    Идентификатор кодека : A_DTS
    Продолжительность : 1 ч. 51 м.
    Вид битрейта : Переменный / Постоянный
    Битрейт : 3968 Кбит/сек / 1509 Кбит/сек
    Каналы : 6 каналов
    Расположение каналов : Front: L C R, Side: L R, LFE
    Частота : 48,0 КГц
    Частота кадров : 93,750 кадра/сек (512 spf)
    Битовая глубина : 24 бит
    Метод сжатия : Без потерь / Lossy
    Размер потока : 3,09 Гбайт (11%)
    Заголовок : Русский DTS-HD MA 2935 - АП (Живов)
    Язык : Russian
    Default : Нет
    Forced : Нет
    Аудио #3
    Идентификатор : 4
    Формат : DTS
    Формат/Информация : Digital Theater Systems
    Режим : 16
    Параметр Endianness формата : Big
    Идентификатор кодека : A_DTS
    Продолжительность : 1 ч. 51 м.
    Вид битрейта : Постоянный
    Битрейт : 1509 Кбит/сек
    Каналы : 6 каналов
    Расположение каналов : Front: L C R, Side: L R, LFE
    Частота : 48,0 КГц
    Частота кадров : 93,750 кадра/сек (512 spf)
    Битовая глубина : 24 бит
    Метод сжатия : С потерями
    Размер потока : 1,18 Гбайт (4%)
    Заголовок : Русский DTS 1509 - АП (Киреев)
    Язык : Russian
    Default : Нет
    Forced : Нет
    Аудио #4
    Идентификатор : 5
    Формат : DTS
    Формат/Информация : Digital Theater Systems
    Профиль формата : MA / Core
    Режим : 16
    Параметр Endianness формата : Big
    Идентификатор кодека : A_DTS
    Продолжительность : 1 ч. 51 м.
    Вид битрейта : Переменный / Постоянный
    Битрейт : 2940 Кбит/сек / 1509 Кбит/сек
    Каналы : 6 каналов
    Расположение каналов : Front: L C R, Side: L R, LFE
    Частота : 48,0 КГц
    Частота кадров : 93,750 кадра/сек (512 spf)
    Битовая глубина : 24 бит
    Метод сжатия : Без потерь / Lossy
    Размер потока : 2,29 Гбайт (9%)
    Заголовок : Английский DTS-HD MA 2940 - Оригинал
    Язык : English
    Default : Нет
    Forced : Нет
    Текст #1
    Идентификатор : 6
    Формат : UTF-8
    Идентификатор кодека : S_TEXT/UTF8
    Идентификатор кодека/Информация : UTF-8 Plain Text
    Продолжительность : 27 м. 31 с.
    Битрейт : 2 бит/сек
    Count of elements : 10
    Размер потока : 557 байт (0%)
    Заголовок : Русские - форс.
    Язык : Russian
    Default : Да
    Forced : Нет
    Текст #2
    Идентификатор : 7
    Формат : UTF-8
    Идентификатор кодека : S_TEXT/UTF8
    Идентификатор кодека/Информация : UTF-8 Plain Text
    Продолжительность : 1 ч. 43 м.
    Битрейт : 62 бит/сек
    Count of elements : 896
    Размер потока : 47,2 Кбайт (0%)
    Заголовок : Русские
    Язык : Russian
    Default : Нет
    Forced : Нет
    Текст #3
    Идентификатор : 8
    Формат : UTF-8
    Идентификатор кодека : S_TEXT/UTF8
    Идентификатор кодека/Информация : UTF-8 Plain Text
    Продолжительность : 1 ч. 40 м.
    Битрейт : 36 бит/сек
    Count of elements : 864
    Размер потока : 26,8 Кбайт (0%)
    Заголовок : Английские
    Язык : English
    Default : Нет
    Forced : Нет
    Меню
    00:00:00.000 : :00:00:00.000
    00:08:38.476 : :00:08:38.476
    00:17:51.779 : :00:17:51.779
    00:23:38.417 : :00:23:38.417
    00:31:22.297 : :00:31:22.297
    00:40:30.386 : :00:40:30.386
    00:46:35.501 : :00:46:35.501
    00:52:08.459 : :00:52:08.459
    00:57:15.682 : :00:57:15.682
    01:05:58.830 : :01:05:58.830
    01:12:38.729 : :01:12:38.729
    01:16:58.489 : :01:16:58.489
    01:23:26.460 : :01:23:26.460
    01:24:51.962 : :01:24:51.962
    01:32:01.307 : :01:32:01.307
    01:36:54.976 : :01:36:54.976
  2. Стаж:
    2 года 6 месяцев
    Сообщений:
    46
    Пол:
    Мужской
    очень крутой фантастический фильм!!!))))))))) такая херня
    09-Фев-2018 12:45 (спустя 12 часов)
  3. Стаж:
    1 год 10 месяцев
    Сообщений:
    498
    Пол:
    Мужской
    rembo1410,
    Так ты определись,он крутой или херня... ?
    09-Фев-2018 20:42 (спустя 7 часов)
  4. Стаж:
    2 года 6 месяцев
    Сообщений:
    46
    Пол:
    Мужской
    фантастическая херня! вот так точнее
    11-Фев-2018 09:35 (спустя 1 день 12 часов)
  5. Стаж:
    1 год 10 месяцев
    Сообщений:
    498
    Пол:
    Мужской
    Открою всем сикрет,все хорошие фильмы уже давно рипанули в 60fps,а я доделываю то,что осталось,что бы на сайте была максимально большая коллекция фильмов... !
    11-Фев-2018 09:39 (спустя 3 минуты)
  6. Стаж:
    2 года 6 месяцев
    Сообщений:
    46
    Пол:
    Мужской
    уважаемый Талямба я же ни чего в твой адрес не сказал. масса есть фильмов просто ни о чем но зритель имеет право все равно их смотреть.а за твои труды спасибо.
    12-Фев-2018 19:51 (спустя 1 день 10 часов)


Вы не можете начинать темы
Вы не можете отвечать на сообщения
Вы не можете редактировать свои сообщения
Вы не можете удалять свои сообщения
Вы не можете голосовать в опросах
Вы не можете прикреплять файлы к сообщениям
Вы не можете скачивать файлы