Тор: Рагнарёк / Thor: Ragnarok (2017) BDRip 1080p | 60 fps Стражи Галактики. Часть 2 / Guardians of the Galaxy Vol. 2 (2017) BDRip 1080p | 60 fps Мстители: Эра Альтрона / Avengers: Age of Ultron (2015) BDRip 1080p | 60 fps Мстители / The Avengers (2012) BDRip 720p | 60 fps Первый мститель: Противостояние / Captain America: Civil War (2016) BDRip 1080p | 60 fps Доктор Стрэндж / Doctor Strange (2016) BDRip 1080p | 60 fps Человек-паук: Возвращение домой / Spider-Man: Homecoming (2017) BDRip 1080p | 60 fps Валериан и город тысячи планет / Valerian and the City of a Thousand Planets (2017) BDRip 1080p | 60 fps
  1. Стаж:
    3 года 10 месяцев
    Сообщений:
    2396
    Пол:
    Мужской
    Колесо чудес / Wonder Wheel (2017) BDRip 720p | 60 fps Информация
    Название: Колесо чудес
    Оригинальное название: Wonder Wheel
    Год выхода: 2017
    Жанр: Драма
    Режиссер: Вуди Аллен
    Сценарий: Вуди Аллен
    Продюсер: Эрика Аронсон, Летти Аронсон
    В ролях: Джеймс Белуши, Джуно Темпл, Джастин Тимберлейк, Кейт Уинслет, Макс Каселла, Джек Гор, Дэвид Крамхолц, Роберт С. Кирк, Томми Нохилли, Тони Сирико

    Сюжет:
    Студент Нью-Йоркского университета подрабатывает на пляже Кони-Айленд. Микки - поэт по натуре и мечтает стать писателем, чтобы однажды удивить всех и представить настоящий шедевр. Не давая нам перевести дух, Микки не медля приступает к рассказу, и мы не можем расслабится, потому как ситуация взвинчивается с каждой минутой, когда Каролина появляется в доме своего отца Ханти, его жены Джини и пасынка. В красивых декорациях с иронией, вплетённой в драматургию сюжета, рельефнее видны пороки: эгоизм, нелюбовь, равнодушие и предательство.

    Страна: США
    Продолжительность: 01:41:01

    Файл
    Кодек: H.264
    Формат: MKV
    Качество: BDRip 720p | 60 fps
    Видео: 1280 x 640 (2.000) | 60.000 fps | 8.0 Мбит/сек
    Аудио 01: AC3 | 5.1 | 48 kHz | 384 kbps | 16 bit | Дубляж - iTunes |
    Аудио 02: AC3 | 5.1 | 48 kHz | 448 kbps | 16 bit | english |
    Субтитры: английские

    MedifInfo

    Видео
    Идентификатор : 1
    Формат : AVC
    Формат/Информация : Advanced Video Codec
    Профиль формата : High@L4.1
    Параметр CABAC формата : Да
    Параметр ReFrames формата : 3 кадра
    Идентификатор кодека : V_MPEG4/ISO/AVC
    Продолжительность : 1 ч. 41 м.
    Вид битрейта : Переменный
    Битрейт : 7578 Кбит/сек
    Максимальный битрейт : 8000 Кбит/сек
    Ширина : 1280 пикселей
    Высота : 640 пикселей
    Соотношение сторон : 2,000
    Режим частоты кадров : Постоянный
    Частота кадров : 59,880 кадров/сек
    Частота кадров в оригинале : 59,940 кадров/сек
    Стандарт вещания : PAL
    Цветовое пространство : YUV
    Субдискретизация насыщенности : 4:2:0
    Битовая глубина : 8 бит
    Тип развёртки : Прогрессивная
    Бит/(Пиксели*Кадры) : 0.154
    Размер потока : 5,35 Гбайт (88%)
    Заголовок : www.60-fps.org
    Язык : English
    Default : Да
    Forced : Нет
    Основные цвета : BT.709
    Характеристики трансфера : BT.709
    Коэффициенты матрицы : BT.709
    colour_range : Limited
    Аудио #1
    Идентификатор : 2
    Формат : AC-3
    Формат/Информация : Audio Coding 3
    Расширение режима : CM (complete main)
    Параметр Endianness формата : Big
    Идентификатор кодека : A_AC3
    Продолжительность : 1 ч. 41 м.
    Вид битрейта : Постоянный
    Битрейт : 384 Кбит/сек
    Каналы : 6 каналов
    Расположение каналов : Front: L C R, Side: L R, LFE
    Частота : 48,0 КГц
    Битовая глубина : 16 бит
    Метод сжатия : С потерями
    Размер потока : 277 Мбайт (4%)
    Заголовок : Дубляж - iTunes
    Язык : Russian
    Default : Да
    Forced : Нет
    Аудио #2
    Идентификатор : 3
    Формат : AC-3
    Формат/Информация : Audio Coding 3
    Расширение режима : CM (complete main)
    Параметр Endianness формата : Big
    Идентификатор кодека : A_AC3
    Продолжительность : 1 ч. 41 м.
    Вид битрейта : Постоянный
    Битрейт : 448 Кбит/сек
    Каналы : 6 каналов
    Расположение каналов : Front: L C R, Side: L R, LFE
    Частота : 48,0 КГц
    Битовая глубина : 16 бит
    Метод сжатия : С потерями
    Размер потока : 324 Мбайт (5%)
    Заголовок : english
    Язык : English
    Default : Нет
    Forced : Нет
    Текст
    Идентификатор : 4
    Формат : UTF-8
    Идентификатор кодека : S_TEXT/UTF8
    Идентификатор кодека/Информация : UTF-8 Plain Text
    Заголовок : Full
    Язык : English
    Default : Нет
    Forced : Нет
    Меню
    00:00:00.000 : en:Chapter 1
    00:06:07.450 : en:Chapter 2
    00:12:22.366 : en:Chapter 3
    00:17:53.322 : en:Chapter 4
    00:23:46.425 : en:Chapter 5
    00:30:24.072 : en:Chapter 6
    00:35:28.543 : en:Chapter 7
    00:40:06.904 : en:Chapter 8
    00:46:12.352 : en:Chapter 9
    00:51:53.735 : en:Chapter 10
    00:58:04.898 : en:Chapter 11
    01:01:55.086 : en:Chapter 12
    01:05:18.497 : en:Chapter 13
    01:09:38.465 : en:Chapter 14
    01:12:15.039 : en:Chapter 15
    01:17:58.840 : en:Chapter 16
    01:24:03.747 : en:Chapter 17
    01:28:39.188 : en:Chapter 18
    01:35:05.282 : en:Chapter 19
    01:37:57.288 : en:Chapter 20

    Релиз подготовлен 60 - fps



Вы не можете начинать темы
Вы не можете отвечать на сообщения
Вы не можете редактировать свои сообщения
Вы не можете удалять свои сообщения
Вы не можете голосовать в опросах
Вы не можете прикреплять файлы к сообщениям
Вы не можете скачивать файлы