Агент Ева / Ava (2020) BDRip 1080p | 60 fps Властелин колец: Трилогия / The Lord of the Rings: Trilogy (2001-2003) BDRip-AVC | Extended Cut | 60 fps Пятый элемент / The Fifth Element (1997) BDRip 1080p | 60 fps Форпост / The Outpost (2020) BDRip 1080p | 60 fps Охота / The Hunt (2020) BDRip 1080p | 60 fps Поезд смерти / D-Railed (2018) BDRip 1080p | 60 fps Вивариум / Vivarium (2019) BDRip 720p | 60 fps Ультрафиолет / Ultraviolet (2006) BDRip 1080p | 60 fps
  1. Longevity:
    4 years 6 months
    Posts:
    1575
    Gender:
    Male
    Фильм «Никогда не доверяй вору» Фильм- Информация
    Название: Кодекс вора
    Оригинальное название: The Code
    Год выхода: 2008
    Жанр: боевик, триллер, криминал
    Режиссер: Мими Ледер
    Сценарий: Тед Хамфри
    Продюсер: Рэндолл Эмметт, Лори МакКрири, Лес Уэлдон
    В ролях: Морган Фриман,Антонио Бандерас,Рада Митчелл,Роберт Форстер,Раде Шербеджия,Марчел Юреш,Том Харди,Кори Джонсон,Джеррит Вурен,Чуки Венис
    --Сюжет:
    Кит Рипли, опытный вор из Нью-Йорка, приглашает из Майами молодого, но уже проявившего себя «коллегу», Габриэля Мартина. Рипли нужен напарник для кражи двух старинных и очень ценных яиц Фаберже. Они вместе с другими драгоценностями российской династии Романовых хранятся в хорошо защищенном сейфе. Каждое яйцо на черном рынке стоит двадцать миллионов долларов.
    Украв раритет, Рипли планирует вернуть долг криминальному боссу Ники. Сумеет ли вор расплатиться по счетам, если в планы «преступной парочки» хочет вмешаться лейтенант полиции Вебер?
    -- Страна: США, Германия
    Продолжительность: 01:43:37

    Файл
    Кодек: MPEG4/ISO/AVC H.264/[email protected]
    Формат: MKV
    Качество: BDRip 720p | 60 fps
    Видео: 1280 x 544 (2.353) | 60.000 fps | 5053 Кбит/сек
    Аудио 1: AC-3| 5.1 | 48 kHz | 384 Кбит/сек | 16 bit | Дубляж
    Субтитры: НЕТ

    MedifInfo

    Видео
    Идентификатор : 1
    Формат : AVC
    Формат/Информация : Advanced Video Codec
    Профиль формата : [email protected]
    Параметр CABAC формата : Да
    Параметр ReFrames формата : 4 кадра
    Идентификатор кодека : V_MPEG4/ISO/AVC
    Продолжительность : 1 ч. 43 м.
    Битрейт : 5053 Кбит/сек
    Ширина : 1280 пикселей
    Высота : 544 пикселя
    Соотношение сторон : 2,35:1
    Режим частоты кадров : Постоянный
    Частота кадров : 60,000 кадров/сек
    Цветовое пространство : YUV
    Субдискретизация насыщенности : 4:2:0
    Битовая глубина : 8 бит
    Тип развёртки : Прогрессивная
    Бит/(Пиксели*Кадры) : 0.121
    Размер потока : 3,64 Гбайт (93%)
    Библиотека кодирования : x264 core 146 r2538 121396c
    Настройки программы : cabac=1 / ref=4 / deblock=1:-1:-1 / analyse=0x3:0x113 / me=hex / subme=9 / psy=1 / psy_rd=1.00:0.00 / mixed_ref=1 / me_range=16 / chroma_me=1 / trellis=2 / 8x8dct=1 / cqm=0 / deadzone=21,11 / fast_pskip=1 / chroma_qp_offset=-2 / threads=8 / lookahead_threads=1 / sliced_threads=0 / nr=0 / decimate=1 / interlaced=0 / bluray_compat=0 / constrained_intra=0 / bframes=4 / b_pyramid=2 / b_adapt=2 / b_bias=0 / direct=3 / weightb=1 / open_gop=0 / weightp=2 / keyint=250 / keyint_min=25 / scenecut=40 / intra_refresh=0 / rc_lookahead=40 / rc=2pass / mbtree=1 / bitrate=5053 / ratetol=1.0 / qcomp=0.60 / qpmin=0 / qpmax=69 / qpstep=4 / cplxblur=20.0 / qblur=0.5 / vbv_maxrate=14000 / vbv_bufsize=14000 / nal_hrd=none / filler=0 / ip_ratio=1.40 / aq=1:1.00
    Язык : English
    Default : Да
    Forced : Нет
    Аудио
    Идентификатор : 2
    Формат : AC-3
    Формат/Информация : Audio Coding 3
    Расширение режима : CM (complete main)
    Параметр Endianness формата : Big
    Идентификатор кодека : A_AC3
    Продолжительность : 1 ч. 43 м.
    Вид битрейта : Постоянный
    Битрейт : 384 Кбит/сек
    Каналы : 2 канала
    Расположение каналов : Front: L R
    Частота : 48,0 КГц
    Частота кадров : 31,250 кадров/сек (1536 spf)
    Битовая глубина : 16 бит
    Метод сжатия : С потерями
    Размер потока : 285 Мбайт (7%)
    Заголовок : DUB - Рен ТВ
    Язык : Russian
    Default : Да
    Forced : Нет


You cannot post new topics in this forum
You cannot reply to topics in this forum
You cannot edit your posts in this forum
You cannot delete your posts in this forum
You cannot vote in polls in this forum
You cannot attach files in this forum
You cannot download files in this forum