«Eddie Cusack's a good cop having a very bad day»- Информация
Название: Кодекс молчания
Оригинальное название: Code of Silence
Год выхода: 1985
Жанр: боевик, триллер, драма, криминал
Режиссер: Эндрю Дэвис
Сценарий: Майкл Батлер, Деннис Шрайак, Майк Грэй
Продюсер: Рэймонд Вагнер
В ролях: Чак Норрис, Генри Сильва, Берт Ремсен, Майк Дженовезе, Натан Дэвис, Ральф Фуди, Аллен Хэмилтон, Рон Энрикез, ДжойГузальдо, Молли Хэйгэн, Рон Дин, Уилберт Брэдли, Деннис Фарина, Джин Барж, Марио Нивз, Мигель Нино, Ронни Баррон, Джозеф Ф. Косала, Лу Дамиани, Нидия Родригез Террачина, Андре Маркиз, Джон Махони, Дэннис Кокрум, Зайд Фарид, Ховард Джексон, Алекс Стивенс, Дон Пайк, Лес Подвелл, Триш Шефер, Джек Кандел, Джеймс Фиерро, Джефф Хоук, Гари Пайк, Джек Декер, Сью Келли, Майкл Э. Брэдли, Ширли Келли, Дэвид Эрнандез, Роберт Минкофф
--Сюжет:

Очередная операция полиции Чикаго планировалась особенно тщательно. Дело того стоило: наконец-то появилась возможность взять с поличным печально знаменитую нарко-банду Комачо. Но в момент передачи «товара» на месте сделки появляются представители конкурирующей группировки — люди Тони Луна.
Завязывается перестрелка, в результате которой погибают два офицера, ранен сам Камачо, а партия наркотиков бесследно исчезает. Найти пропажу поручено детективу Эдди Кьюсаку, который решает действовать крайне осторожно и первым делом устанавливает наблюдение за Дайаной — дочерью Тони Луна…
- - Страна: США
Продолжительность: 01:40:49

Файл
Кодек: MPEG4/ISO/AVC H.264
Формат: MKV
Качество: BDRip 1080p | 60 fps
Видео: 1280x680 (1.882) | 59.940 fps | 10.2 Мбит/сек
Аудио 1: AC3 | 2.0 | 48 kHz | 192 kbps | 16 bit | Многоголосый закадровый |
Аудио 2: AC3 | 2.0 | 48 kHz | 192 kbps | 16 bit | Одноголосый закадровый, А. Гаврилов |
Аудио 3: AC3 | 2.0 | 48 kHz | 192 kbps | 16 bit | Одноголосый закадровый, В. Горчаков |
Аудио 4: AC3 | 1.0 | 48 kHz | 192 kbps | 16 bit | Одноголосый закадровый, Ю. Сербин |
Аудио 5: AC3 | 1.0 | 48 kHz | 192 kbps | 16 bit | Одноголосый закадровый, Ю. Живов |
Аудио 6: AC3 | 1.0 | 48 kHz | 192 kbps | 16 bit | ENG |
Субтитры: Eng

MedifInfo

Video
ID : 1
Format : AVC
Format/Info : Advanced Video Codec
Format profile : High@L4.1
Format settings, CABAC : Yes
Format settings, ReFrames : 8 frames
Codec ID : V_MPEG4/ISO/AVC
Duration : 1h 40mn
Bit rate : 10.0 Mbps
Width : 1 280 pixels
Height : 680 pixels
Display aspect ratio : 1.882
Frame rate mode : Constant
Frame rate : 59.880 fps
Original frame rate : 59.940 fps
Color space : YUV
Chroma subsampling : 4:2:0
Bit depth : 8 bits
Scan type : Progressive
Bits/(Pixel*Frame) : 0.192
Stream size : 7.06 GiB (88%)
Writing library : x264 core 146 r2538 121396c
Encoding settings : cabac=1 / ref=8 / deblock=1:0:0 / analyse=0x3:0x113 / me=umh / subme=10 / psy=1 / psy_rd=1.00:0.00 / mixed_ref=1 / me_range=24 / chroma_me=1 / trellis=2 / 8x8dct=1 / cqm=0 / deadzone=21,11 / fast_pskip=0 / chroma_qp_offset=-2 / threads=12 / lookahead_threads=1 / sliced_threads=0 / nr=0 / decimate=1 / interlaced=0 / bluray_compat=0 / constrained_intra=0 / bframes=6 / b_pyramid=2 / b_adapt=2 / b_bias=0 / direct=3 / weightb=1 / open_gop=0 / weightp=2 / keyint=250 / keyint_min=25 / scenecut=40 / intra_refresh=0 / rc_lookahead=40 / rc=crf / mbtree=0 / crf=18.0 / qcomp=0.60 / qpmin=0 / qpmax=69 / qpstep=4 / vbv_maxrate=14000 / vbv_bufsize=14000 / crf_max=0.0 / nal_hrd=none / filler=0 / ip_ratio=1.40 / pb_ratio=1.30 / aq=3:1.00
Language : English
Default : Yes
Forced : No
Audio #1
ID : 2
Format : AC-3
Format/Info : Audio Coding 3
Mode extension : CM (complete main)
Format settings, Endianness : Big
Codec ID : A_AC3
Duration : 1h 40mn
Bit rate mode : Constant
Bit rate : 192 Kbps
Channel(s) : 2 channels
Channel positions : Front: L R
Sampling rate : 48.0 KHz
Compression mode : Lossy
Stream size : 138 MiB (2%)
Title : MVO
Language : Russian
Default : No
Forced : No
Audio #2
ID : 3
Format : AC-3
Format/Info : Audio Coding 3
Mode extension : CM (complete main)
Format settings, Endianness : Big
Codec ID : A_AC3
Duration : 1h 40mn
Bit rate mode : Constant
Bit rate : 192 Kbps
Channel(s) : 2 channels
Channel positions : Front: L R
Sampling rate : 48.0 KHz
Compression mode : Lossy
Stream size : 138 MiB (2%)
Title : AVO Gavrilov
Language : Russian
Default : No
Forced : No
Audio #3
ID : 4
Format : AC-3
Format/Info : Audio Coding 3
Mode extension : CM (complete main)
Format settings, Endianness : Big
Codec ID : A_AC3
Duration : 1h 40mn
Bit rate mode : Constant
Bit rate : 192 Kbps
Channel(s) : 2 channels
Channel positions : Front: L R
Sampling rate : 48.0 KHz
Compression mode : Lossy
Stream size : 138 MiB (2%)
Title : AVO Gorchakov
Language : Russian
Default : No
Forced : No
Audio #4
ID : 5
Format : AC-3
Format/Info : Audio Coding 3
Mode extension : CM (complete main)
Format settings, Endianness : Big
Codec ID : A_AC3
Duration : 1h 40mn
Bit rate mode : Constant
Bit rate : 192 Kbps
Channel(s) : 1 channel
Channel positions : Front: C
Sampling rate : 48.0 KHz
Compression mode : Lossy
Stream size : 138 MiB (2%)
Title : VO Serbin
Language : Russian
Default : No
Forced : No
Audio #5
ID : 6
Format : AC-3
Format/Info : Audio Coding 3
Mode extension : CM (complete main)
Format settings, Endianness : Big
Codec ID : A_AC3
Duration : 1h 40mn
Bit rate mode : Constant
Bit rate : 192 Kbps
Channel(s) : 1 channel
Channel positions : Front: C
Sampling rate : 48.0 KHz
Compression mode : Lossy
Stream size : 138 MiB (2%)
Title : AVO Zhivov
Language : Russian
Default : No
Forced : No
Audio #6
ID : 7
Format : AC-3
Format/Info : Audio Coding 3
Mode extension : CM (complete main)
Format settings, Endianness : Big
Codec ID : A_AC3
Duration : 1h 40mn
Bit rate mode : Constant
Bit rate : 192 Kbps
Channel(s) : 1 channel
Channel positions : Front: C
Sampling rate : 48.0 KHz
Compression mode : Lossy
Stream size : 138 MiB (2%)
Title : Eng
Language : English
Default : No
Forced : No
Text
ID : 8
Format : UTF-8
Codec ID : S_TEXT/UTF8
Codec ID/Info : UTF-8 Plain Text
Title : Eng full SDH
Language : English
Default : No
Forced : No
Menu
00:00:00.000 : :Chapter 01
00:17:24.792 : :Chapter 02
00:35:04.018 : :Chapter 03
00:43:04.915 : :Chapter 04
00:53:51.018 : :Chapter 05
01:12:07.573 : :Chapter 06
01:24:33.777 : :Chapter 07
01:36:23.652 : :Chapter 08
[60-fps.org].t1719.torrent
Торрент: Зарегистрирован [ 2016-01-13 13:49 ] · 0BC9AE6ED014D5B7C2C880967909DCF04A21B5F1

Скачать .torrent

Скачать

41 KB

Статус: проверено
Скачан: 23 раз
Поблагодарили:
Размер: 8,03 GB
 
 
Показать сообщения:    

Текущее время: 20-Фев 23:15

Часовой пояс: UTC + 3


Вы не можете начинать темы
Вы не можете отвечать на сообщения
Вы не можете редактировать свои сообщения
Вы не можете удалять свои сообщения
Вы не можете голосовать в опросах
Вы не можете прикреплять файлы к сообщениям
Вы можете скачивать файлы