1. Longevity:
    4 years 8 months
    Posts:
    314
    Gender:
    Male
    Заказать фильмы, клипы или любое другое видео в качестве 60fps может каждый!!!
    Стоимость одного видео 50руб. !!!
    Пишите Талямба в личку, всё обсудите...
    Кодекс киллера / The Protégé / The Protege (2021) WEB-DL 1080p | 60 fps Информация
    Название: Кодекс киллера
    Оригинальное название: The Protege
    Год выхода: 2021
    Жанр: Боевик, детектив, криминал
    Режиссер: Мартин Кэмпбелл
    В ролях: Майкл Китон, Мэгги Кью, Сэмюэл Л. Джексон, Ори Феффер, Мадалина Анеа, Флорин Пьерсик мл., Кэролайн Лонк, Гамба Кол, Велизар Бинев, Екатерина Бейкер
    Страна: Великобритания, США
    Продолжительность: 2 ч. 44 м. 01 с.
    ----- Сюжет:
    Героиня триллера «Кодекс киллера» — девушка-хакер, которая вынуждена скрываться вместе со своими подельниками после того, как у них случайно оказались деньги криминального босса. ------ Файл
    Кодек: V_MPEG4/ISO/AVC
    Формат: MKV
    Качество: WEB-DL 1080p | 60 fps
    Видео: 1920 x 800 (2.400) | 59.940 fps | 35 Мбит/сек
    Аудио 1: 48 kHz, AC3, 5.1, 384 Kbps | Дублированный | iTunes | RUS |
    Аудио 2: 48 kHz, AC3, 5.1, 448 Kbps | Авторский | М. Яроцкий (kyberpunk) | RUS |
    Аудио 3: 48 kHz, E-AC3, 5.1, 640 Kbps | Оригинал | ENG |

    MedifInfo

    Общее
    Уникальный идентификатор : 191312798857600387933369651806592631981 (0x8FED813AFEA80FE3A83AAD6629DD04AD)
    Полное имя : D:\Movie\Кодекс киллера (2021).WEB-DL.1080p.60fps.mkv
    Формат : Matroska
    Версия формата : Version 2
    Размер файла : 26,5 Гбайт
    Продолжительность : 1 ч. 44 м.
    Общий поток : 36,5 Мбит/сек
    Название фильма : Кодекс киллера https://60-fps.org/
    Дата кодирования : UTC 2021-10-04 18:31:23
    Программа кодирования : mkvmerge v5.8.0 ('No Sleep / Pillow') built on Sep 2 2012 15:37:04
    Библиотека кодирования : libebml v1.2.3 + libmatroska v1.3.0
    Attachments : Poster.jpg
    Видео #1
    Идентификатор : 1
    Формат : AVC
    Формат/Информация : Advanced Video Codec
    Профиль формата : [email protected]
    Параметр CABAC формата : Да
    Параметр ReFrames формата : 5 кадров
    Режим смешивания : Header stripping
    Идентификатор кодека : V_MPEG4/ISO/AVC
    Продолжительность : 1 ч. 44 м.
    Номинальный битрейт : 25,0 Мбит/сек
    Ширина : 1920 пикселей
    Высота : 792 пикселя
    Соотношение сторон : 2,40:1
    Режим частоты кадров : Постоянный
    Частота кадров : 60,000 кадров/сек
    Цветовое пространство : YUV
    Субдискретизация насыщенности : 4:2:0
    Битовая глубина : 8 бит
    Тип развёртки : Прогрессивная
    Бит/(Пиксели*Кадры) : 0.274
    Библиотека кодирования : x264 core 146 r2538 121396c
    Настройки программы : cabac=1 / ref=5 / deblock=1:0:0 / analyse=0x3:0x113 / me=umh / subme=8 / psy=1 / psy_rd=1.00:0.25 / mixed_ref=1 / me_range=32 / chroma_me=1 / trellis=1 / 8x8dct=1 / cqm=0 / deadzone=6,6 / fast_pskip=1 / chroma_qp_offset=-4 / threads=12 / lookahead_threads=3 / sliced_threads=0 / nr=0 / decimate=0 / interlaced=0 / bluray_compat=0 / constrained_intra=0 / bframes=3 / b_pyramid=2 / b_adapt=2 / b_bias=0 / direct=3 / weightb=1 / open_gop=0 / weightp=2 / keyint=600 / keyint_min=60 / scenecut=40 / intra_refresh=0 / rc_lookahead=50 / rc=2pass / mbtree=1 / bitrate=25000 / ratetol=1.0 / qcomp=0.80 / qpmin=0 / qpmax=69 / qpstep=4 / cplxblur=20.0 / qblur=0.5 / vbv_maxrate=50000 / vbv_bufsize=50000 / nal_hrd=none / filler=0 / ip_ratio=1.10 / aq=1:0.50
    Язык : English
    Default : Да
    Forced : Нет
    Видео #2
    Идентификатор : 2
    Формат : AVC
    Формат/Информация : Advanced Video Codec
    Профиль формата : [email protected]
    Параметр CABAC формата : Да
    Параметр ReFrames формата : 4 кадра
    Режим смешивания : Header stripping
    Идентификатор кодека : V_MPEG4/ISO/AVC
    Продолжительность : 1 ч. 44 м.
    Ширина : 1920 пикселей
    Высота : 800 пикселей
    Соотношение сторон : 2,40:1
    Режим частоты кадров : Постоянный
    Частота кадров : 25,000 кадров/сек
    Цветовое пространство : YUV
    Субдискретизация насыщенности : 4:2:0
    Битовая глубина : 8 бит
    Тип развёртки : Прогрессивная
    Язык : English
    Default : Нет
    Forced : Нет
    Statistics Tags Issue : mkvmerge v59.0.0 ('Shining Star') 64-bit 2021-10-03 22:42:05 / mkvmerge v5.8.0 ('No Sleep / Pillow') built on Sep 2 2012 15:37:04 2021-10-04 18:31:23
    FromStats_BitRate : 10036873
    FromStats_Duration : 01:44:01.760000000
    FromStats_FrameCount : 156044
    FromStats_StreamSize : 7830969440
    Аудио #1
    Идентификатор : 3
    Формат : AC-3
    Формат/Информация : Audio Coding 3
    Расширение режима : CM (complete main)
    Параметр Endianness формата : Big
    Режим смешивания : Header stripping
    Идентификатор кодека : A_AC3
    Продолжительность : 1 ч. 44 м.
    Вид битрейта : Постоянный
    Битрейт : 384 Кбит/сек
    Каналы : 6 каналов
    Расположение каналов : Front: L C R, Side: L R, LFE
    Частота : 48,0 КГц
    Частота кадров : 31,250 кадров/сек (1536 spf)
    Битовая глубина : 16 бит
    Метод сжатия : С потерями
    Задержка видео : 24 мс.
    Размер потока : 286 Мбайт (1%)
    Заголовок : Dub [iTunes]
    Язык : Russian
    Default : Да
    Forced : Да
    Statistics Tags Issue : mkvmerge v59.0.0 ('Shining Star') 64-bit 2021-10-03 22:42:05 / mkvmerge v5.8.0 ('No Sleep / Pillow') built on Sep 2 2012 15:37:04 2021-10-04 18:31:23
    FromStats_BitRate : 384000
    FromStats_Duration : 01:44:01.920000000
    FromStats_FrameCount : 195060
    FromStats_StreamSize : 299612160
    Аудио #2
    Идентификатор : 4
    Формат : AC-3
    Формат/Информация : Audio Coding 3
    Расширение режима : CM (complete main)
    Параметр Endianness формата : Big
    Режим смешивания : Header stripping
    Идентификатор кодека : A_AC3
    Продолжительность : 1 ч. 44 м.
    Вид битрейта : Постоянный
    Битрейт : 448 Кбит/сек
    Каналы : 6 каналов
    Расположение каналов : Front: L C R, Side: L R, LFE
    Частота : 48,0 КГц
    Частота кадров : 31,250 кадров/сек (1536 spf)
    Битовая глубина : 16 бит
    Метод сжатия : С потерями
    Задержка видео : 24 мс.
    Размер потока : 333 Мбайт (1%)
    Заголовок : AVO [kyberpunk]
    Язык : Russian
    Default : Нет
    Forced : Нет
    Statistics Tags Issue : mkvmerge v59.0.0 ('Shining Star') 64-bit 2021-10-03 22:42:05 / mkvmerge v5.8.0 ('No Sleep / Pillow') built on Sep 2 2012 15:37:04 2021-10-04 18:31:23
    FromStats_BitRate : 448000
    FromStats_Duration : 01:44:01.728000000
    FromStats_FrameCount : 195054
    FromStats_StreamSize : 349536768
    Аудио #3
    Идентификатор : 5
    Формат : E-AC-3
    Формат/Информация : Enhanced Audio Coding 3
    Параметр Endianness формата : Big
    Режим смешивания : Header stripping
    Идентификатор кодека : A_EAC3
    Продолжительность : 1 ч. 44 м.
    Вид битрейта : Постоянный
    Битрейт : 640 Кбит/сек
    Каналы : 6 каналов
    Расположение каналов : Front: L C R, Side: L R, LFE
    Частота : 48,0 КГц
    Частота кадров : 187,500 кадров/сек (256 spf)
    Метод сжатия : С потерями
    Задержка видео : 21 мс.
    Размер потока : 476 Мбайт (2%)
    Заголовок : Original
    Язык : English
    Default : Нет
    Forced : Нет
    Statistics Tags Issue : mkvmerge v59.0.0 ('Shining Star') 64-bit 2021-10-03 22:42:05 / mkvmerge v5.8.0 ('No Sleep / Pillow') built on Sep 2 2012 15:37:04 2021-10-04 18:31:23
    FromStats_BitRate : 640000
    FromStats_Duration : 01:44:01.728000000
    FromStats_FrameCount : 195054
    FromStats_StreamSize : 499338240
    Текст #1
    Идентификатор : 6
    Формат : UTF-8
    Идентификатор кодека : S_TEXT/UTF8
    Идентификатор кодека/Информация : UTF-8 Plain Text
    Заголовок : Full
    Язык : Russian
    Default : Нет
    Forced : Нет
    Statistics Tags Issue : mkvmerge v59.0.0 ('Shining Star') 64-bit 2021-10-03 22:42:05 / mkvmerge v5.8.0 ('No Sleep / Pillow') built on Sep 2 2012 15:37:04 2021-10-04 18:31:23
    FromStats_BitRate : 50
    FromStats_Duration : 01:33:16.783000000
    FromStats_FrameCount : 780
    FromStats_StreamSize : 35598
    Текст #2
    Идентификатор : 7
    Формат : UTF-8
    Идентификатор кодека : S_TEXT/UTF8
    Идентификатор кодека/Информация : UTF-8 Plain Text
    Язык : English
    Default : Нет
    Forced : Нет
    Statistics Tags Issue : mkvmerge v59.0.0 ('Shining Star') 64-bit 2021-10-03 22:42:05 / mkvmerge v5.8.0 ('No Sleep / Pillow') built on Sep 2 2012 15:37:04 2021-10-04 18:31:23
    FromStats_BitRate : 37
    FromStats_Duration : 01:35:49.441000000
    FromStats_FrameCount : 803
    FromStats_StreamSize : 27062

    Release was prepared by 60-fps.org



You cannot post new topics in this forum
You cannot reply to topics in this forum
You cannot edit your posts in this forum
You cannot delete your posts in this forum
You cannot vote in polls in this forum
You cannot attach files in this forum
You cannot download files in this forum