-Название: Книга Илая
Оригинальное название: The Book of Eli
Год выпуска: 2009
Страна: США
Жанр: боевик, триллер, драма, приключения
Продолжительность: 01:57:55
Перевод: Дубляж
Субтитры: русские (Полные), английские (Полные)-Режиссер: Альберт Хьюз / Albert Hughes, Аллен Хьюз / Allen Hughes-В ролях: Дензел Вашингтон (Eli), Гари Олдман (Carnegie), Мила Кунис (Solara), Рэй Стивенсон (Redridge), Дженнифер Билз (Claudia), Малкольм МакДауэлл (Lombardi, в титрах не указан), Фрэнсис де ла Тур (Martha), Майкл Гэмбон (George), Том Уэйтс (Engineer), Ивэн Джонс (Martz), Джо Пинг (Hoyt), Крис Браунинг (Hijack Leader)-Описание:
После мировой катастрофы Америка превратилась в выжженную пустыню. По бескрайним дорогам, кишащим бандами, враждующими между собой за воду и еду, странствует мудрый Илай. Однажды он прибывает в мрачные края, где когда-то была цветущая Калифорния, а теперь это сущий ад, где бесчинствует тиран Карнеги.-Рейтинг

imdb.com: 6.90 (185 206)
MPAA: R - Лицам до 17 лет обязательно присутствие взрослого-Автор рипа:Tiberiumsun69
-Качество: BDRip 1080p / 60 FPS
Формат: MKV
Видео кодек: AVC
Аудио кодек:AC3
Видео: AVC, 1920x800 (2.40:1), 14000 kbps, 59,940 fps, 0,152 bpp
Аудио №1: русский / AC3 / 5.1 / 48 kHz / 640 kbps / 16 bit |Дубляж|
Аудио №2: английский / AC3 / 5.1 / 48 kHz / 640 kbps / 16 bit
Навигация по главам: есть- -

MI

General
Unique ID : 197571628944269126872970912090455781376 (0x94A2E960E1240761BCA08A49601FB000)
Complete name : A:1080p 60fpsКнига Илая 1080p 60fps.mkv
Format : Matroska
Format version : Version 4 / Version 2
File size : 12.6 GiB
Duration : 1h 57mn
Overall bit rate : 15.3 Mbps
Movie name : R.G. HD-Films by Tiberiumsun69 60fps
Encoded date : UTC 2014-11-10 12:09:55
Writing application : mkvmerge v6.9.1 ('Blue Panther') 64bit built on Apr 18 2014 18:23:38
Writing library : libebml v1.3.0 + libmatroska v1.4.1
Attachment : Yes
Video
ID : 1
Format : AVC
Format/Info : Advanced Video Codec
Format profile : High@L4.1
Format settings, CABAC : Yes
Format settings, ReFrames : 4 frames
Codec ID : V_MPEG4/ISO/AVC
Duration : 1h 57mn
Bit rate : 14.0 Mbps
Width : 1 920 pixels
Height : 800 pixels
Display aspect ratio : 2.40:1
Frame rate : 59.940 fps
Color space : YUV
Chroma subsampling : 4:2:0
Bit depth : 8 bits
Scan type : Progressive
Bits/(Pixel*Frame) : 0.152
Stream size : 11.3 GiB (90%)
Title : R.G. HD-Films by Tiberiumsun69 60fps
Writing library : x264 core 130 r2273 b3065e6
Encoding settings : cabac=1 / ref=4 / deblock=1:-1:-1 / analyse=0x3:0 / me=umh / subme=10 / psy=1 / psy_rd=1.00:0.00 / mixed_ref=1 / me_range=32 / chroma_me=0 / trellis=2 / 8x8dct=1 / cqm=0 / deadzone=21,11 / fast_pskip=0 / chroma_qp_offset=-2 / threads=12 / lookahead_threads=1 / sliced_threads=0 / nr=0 / decimate=0 / interlaced=0 / bluray_compat=0 / constrained_intra=0 / bframes=5 / b_pyramid=2 / b_adapt=2 / b_bias=0 / direct=3 / weightb=1 / open_gop=0 / weightp=2 / keyint=250 / keyint_min=59 / scenecut=40 / intra_refresh=0 / rc_lookahead=60 / rc=2pass / mbtree=1 / bitrate=14000 / ratetol=1.0 / qcomp=0.80 / qpmin=0 / qpmax=69 / qpstep=4 / cplxblur=20.0 / qblur=0.5 / ip_ratio=1.40 / aq=1:0.80
Language : English
Default : Yes
Forced : No
Audio #1
ID : 2
Format : AC-3
Format/Info : Audio Coding 3
Mode extension : CM (complete main)
Codec ID : A_AC3
Duration : 1h 57mn
Bit rate mode : Constant
Bit rate : 640 Kbps
Channel(s) : 6 channels
Channel positions : Front: L C R, Side: L R, LFE
Sampling rate : 48.0 KHz
Bit depth : 16 bits
Compression mode : Lossy
Stream size : 540 MiB (4%)
Title : Дубляж
Language : Russian
Default : Yes
Forced : No
Audio #2
ID : 3
Format : AC-3
Format/Info : Audio Coding 3
Mode extension : CM (complete main)
Codec ID : A_AC3
Duration : 1h 57mn
Bit rate mode : Constant
Bit rate : 640 Kbps
Channel(s) : 6 channels
Channel positions : Front: L C R, Side: L R, LFE
Sampling rate : 48.0 KHz
Bit depth : 16 bits
Compression mode : Lossy
Stream size : 540 MiB (4%)
Title : Оригинал
Language : English
Default : No
Forced : No
Text #1
ID : 4
Format : UTF-8
Codec ID : S_TEXT/UTF8
Codec ID/Info : UTF-8 Plain Text
Title : Полные
Language : Russian
Default : No
Forced : No
Text #2
ID : 5
Format : UTF-8
Codec ID : S_TEXT/UTF8
Codec ID/Info : UTF-8 Plain Text
Title : Полные
Language : English
Default : No
Forced : No
Menu
00:00:00.000 : :Chapter 01
00:08:33.208 : :Chapter 02
00:15:43.648 : :Chapter 03
00:21:49.336 : :Chapter 04
00:27:57.996 : :Chapter 05
00:33:37.168 : :Chapter 06
00:39:27.518 : :Chapter 07
00:45:34.885 : :Chapter 08
00:54:30.295 : :Chapter 09
01:02:28.805 : :Chapter 10
01:12:03.848 : :Chapter 11
01:21:05.597 : :Chapter 12
01:29:49.412 : :Chapter 13
01:36:57.048 : :Chapter 14
01:41:25.983 : :Chapter 15
01:45:21.552 : :Chapter 16

Скриншоты

Просьба к переливающим на другие сайты, в оформлении указывайте пожалуйста авторство рипа - Tiberiumsun69
 
Показать сообщения:    

Текущее время: 22-Июл 07:55

Часовой пояс: UTC + 3


Вы не можете начинать темы
Вы не можете отвечать на сообщения
Вы не можете редактировать свои сообщения
Вы не можете удалять свои сообщения
Вы не можете голосовать в опросах
Вы не можете прикреплять файлы к сообщениям
Вы не можете скачивать файлы