[Цитировать]
Kryl

«The legend will never be the same»- Информация
Название: Книга джунглей
Оригинальное название: The Jungle Book
Год выхода: 2016
Жанр: Фэнтези, Боевик, Драма, Приключения
Режиссер: Джон Фавро
Сценарий: Джастин Маркс, Редьярд Киплинг
Продюсер: Джон Фавро, Бригхэм Тейлор, Молли Аллен
В ролях: Скарлетт Йоханссон, Идрис Эльба, Билл Мюррей, Бен Кингсли, Кристофер Уокен, Джанкарло Эспозито, Лупита Нионго Эмджей, Энтони, Нил Сетхи, Брэндон Хеншель
--Сюжет:
Непримиримая борьба с опасным и внушающим страх тигром Шерханом вынуждает Маугли покинуть волчью стаю и отправиться в захватывающее путешествие. На пути мальчика ждут удивительные открытия и запоминающиеся встречи с пантерой Багирой, медведем Балу, питоном Каа и другими обитателями дремучих джунглей.- - Страна: Великобритания, США
Продолжительность: 01:45:54

Файл
Кодек: MPEG4/ISO/AVC H.264 | High@L 4.2
Формат: MKV
Качество: BDRip 1080p | 60 fps
Видео: 1920 x 1036 (1.853) | 59.940 fps | 28.0 Мбит/сек
Аудио 1: AC3 | 5.1 | 48 kHz | 640 kbps | 16 bit | Дубляж - Blu-ray EUR |
Аудио 2: DTS | 5.1 | 48 kHz | 1509 kbps | 16 bit | Дубляж - Disney/Buena Vista |
Аудио 3: DTS-HD MA | 7.1 | 48 kHz | 5356 kbps | 24 bit | ENG |
Субтитры: Russian (Forced, iTunes), Russian (iTunes), English

MedifInfo

Видео
Идентификатор : 1
Формат : AVC
Формат/Информация : Advanced Video Codec
Профиль формата : Main@L4.2
Параметр CABAC формата : Да
Параметр ReFrames формата : 3 кадра
Параметр GOP формата : M=4, N=72
Идентификатор кодека : V_MPEG4/ISO/AVC
Продолжительность : 1 ч. 45 м.
Ширина : 1920 пикселей
Высота : 1036 пикселей
Соотношение сторон : 1,85:1
Режим частоты кадров : Постоянный
Частота кадров : 59,880 кадров/сек
Частота кадров в оригинале : 59,940 кадров/сек
Стандарт вещания : PAL
Цветовое пространство : YUV
Субдискретизация насыщенности : 4:2:0
Битовая глубина : 8 бит
Тип развёртки : Прогрессивная
Заголовок : www.60-fps.org
Язык : English
Default : Да
Forced : Нет
Основные цвета : BT.709
Характеристики трансфера : BT.709
Коэффициенты матрицы : BT.709
colour_range : Limited
Аудио #1
Идентификатор : 2
Формат : AC-3
Формат/Информация : Audio Coding 3
Расширение режима : CM (complete main)
Параметр Endianness формата : Big
Идентификатор кодека : A_AC3
Продолжительность : 1 ч. 45 м.
Вид битрейта : Постоянный
Битрейт : 640 Кбит/сек
Каналы : 6 каналов
Расположение каналов : Front: L C R, Side: L R, LFE
Частота : 48,0 КГц
Битовая глубина : 16 бит
Метод сжатия : С потерями
Размер потока : 485 Мбайт (2%)
Заголовок : AC3 5.1 @ 640 kbps - DUB, Blu-ray CEE
Язык : Russian
Default : Да
Forced : Нет
Аудио #2
Идентификатор : 3
Формат : DTS
Формат/Информация : Digital Theater Systems
Режим : 16
Параметр Endianness формата : Big
Идентификатор кодека : A_DTS
Продолжительность : 1 ч. 45 м.
Вид битрейта : Постоянный
Битрейт : 1509 Кбит/сек
Каналы : 6 каналов
Расположение каналов : Front: L C R, Side: L R, LFE
Частота : 48,0 КГц
Битовая глубина : 24 бит
Метод сжатия : С потерями
Размер потока : 1,12 Гбайт (4%)
Заголовок : DTS 5.1 @ 1536 kbps - DUB, Disney / Buena Vista
Язык : Ukrainian
Default : Нет
Forced : Нет
Аудио #3
Идентификатор : 4
Формат : DTS
Формат/Информация : Digital Theater Systems
Профиль формата : MA / Core
Режим : 16
Параметр Endianness формата : Big
Идентификатор кодека : A_DTS
Продолжительность : 1 ч. 45 м.
Вид битрейта : Переменный
Битрейт : Неизвестно / 1509 Кбит/сек
Каналы : 8 каналов / 6 каналов
Расположение каналов : Front: L C R, Side: L R, Back: L R, LFE / Front: L C R, Side: L R, LFE
Частота : 48,0 КГц
Битовая глубина : 24 бит
Метод сжатия : Без потерь / Lossy
Заголовок : DTS-HD MA 7.1
Язык : English
Default : Нет
Forced : Нет
Текст #1
Идентификатор : 5
Формат : UTF-8
Идентификатор кодека : S_TEXT/UTF8
Идентификатор кодека/Информация : UTF-8 Plain Text
Заголовок : Forced, iTunes
Язык : Russian
Default : Да
Forced : Нет
Текст #2
Идентификатор : 6
Формат : UTF-8
Идентификатор кодека : S_TEXT/UTF8
Идентификатор кодека/Информация : UTF-8 Plain Text
Заголовок : iTunes
Язык : Russian
Default : Нет
Forced : Нет
Текст #3
Идентификатор : 7
Формат : UTF-8
Идентификатор кодека : S_TEXT/UTF8
Идентификатор кодека/Информация : UTF-8 Plain Text
Заголовок : iTunes
Язык : English
Default : Нет
Forced : Нет
Текст #4
Идентификатор : 8
Формат : UTF-8
Идентификатор кодека : S_TEXT/UTF8
Идентификатор кодека/Информация : UTF-8 Plain Text
Язык : English
Default : Нет
Forced : Нет
Текст #5
Идентификатор : 9
Формат : UTF-8
Идентификатор кодека : S_TEXT/UTF8
Идентификатор кодека/Информация : UTF-8 Plain Text
Заголовок : SDH
Язык : English
Default : Нет
Forced : Нет
Текст #6
Идентификатор : 10
Формат : UTF-8
Идентификатор кодека : S_TEXT/UTF8
Идентификатор кодека/Информация : UTF-8 Plain Text
Заголовок : Commentary
Язык : English
Default : Нет
Forced : Нет
Меню
00:00:00.000 : en:Opening Title
00:00:48.214 : en:Running with Wolves
00:05:15.315 : en:Water Truce
00:09:02.458 : en:A Warning
00:12:42.178 : en:Mowgli Leaves the Pack
00:16:34.451 : en:Shere Khan Attacks
00:21:20.028 : en:Akela's Plea
00:27:15.133 : en:Kaa
00:35:04.143 : en:Baloo's Honey
00:43:21.724 : en:The Mowgli Way
00:48:05.132 : en:"The Bare Necessities"
00:53:29.247 : en:Saving the Elephant
00:58:03.271 : en:Monkey Abduction
01:05:46.442 : en:"I Wan'na Be Like You"
01:10:35.522 : en:Monkey Escape
01:17:01.325 : en:The Red Flower
01:20:48.927 : en:The Law of the Jungle
01:24:46.539 : en:The Final Battle
01:30:32.969 : en:Celebration
01:35:53.205 : en:End Credits

Релиз подготовлен 60 - fps



Последний раз редактировалось: Kryl (2016-11-10 21:33), всего редактировалось 2 раз(а)

Топик был перенесен из форума Новинки Кино 60 FPS в форум Зарубежные фильмы 60 FPS
Kryl

[Цитировать]
dzubakr

Уважаемый фильмодел Улыбаюсь , а планируется этот фильм в 720?

[Цитировать]
Kryl

6408Уважаемый фильмодел Улыбаюсь , а планируется этот фильм в 720?
нееее Грущу

[Цитировать]
anton4ik89

люди, станьте на раздачу пожалуйста

[Цитировать]
craftspirit

Пожалуйста раздавайте фильм. Я вот Варкрафт скачал и не удаляю, чтобы люди могли тоже скачать. Давайте помогать друг другу. Скорости вообще нет.
 
Показать сообщения:    

Текущее время: 17-Янв 00:53

Часовой пояс: UTC + 3


Вы не можете начинать темы
Вы не можете отвечать на сообщения
Вы не можете редактировать свои сообщения
Вы не можете удалять свои сообщения
Вы не можете голосовать в опросах
Вы не можете прикреплять файлы к сообщениям
Вы не можете скачивать файлы