1. Longevity:
    7 years
    Posts:
    2413
    Gender:
    Male
    «To graduate is to survive» Информация
    Название: Класс 1999: Новый учитель
    Оригинальное название: Class of 1999 II: The Substitute
    Год выхода: 1994
    Жанр: ужасы, фантастика, боевик
    Режиссер: Спиро Разатос
    Сценарий: Марк Севи
    Продюсер: Кенни Бейтс, Каталайн Нелл, Расселл Д. Марковиц
    В ролях: Саша Митчел, Кэйтлин Дюлэйни, Ник Кассаветис, Грегори Уэст, Рик Хилл, Джек Найт, Диего Серрано, Берни Пок

    Сюжет:
    Безумный ученый переделал боевых киборгов, и они, перестав быть воинами-убийцами, начали бороться за дисциплину в тех школах, которые были рассадником хулиганства и бандитизма. Но во встроенной программе киборгов пункт, связанный с необходимостью убивать, сохранился, и по этой причине пришлось человекоподобных роботов уничтожить.
    Однако один из них по недосмотру остался. Звали его Джон Болен. Однажды он появился в какой-то провинциальной школе в штате Орегон в качестве нового учителя… Который считал своим священным долгом ликвидировать всякую подростковую шпану еще в зародыше, то есть убивать школьников, скажем, за непослушание…

    Страна: США
    Продолжительность: 01:26:50

    Файл
    Кодек: MPEG4/ISO/AVC/H.264
    Формат: MKV
    Качество: DVDRip | 60 fps
    Видео: 696 x 574 (1.213) | 60.000 fps | 3.5 Мбит/сек
    Аудио 01: AC3 | 2.0 | 48 kHz | 192 kbps | 16 bit | Профессиональный многоголосый закадровый |
    Аудио 02: AC3 | 2.0 | 48 kHz | 192 kbps | 16 bit | Авторский - Юрий Сербин |
    Аудио 03: AC3 | 2.0 | 48 kHz | 192 kbps | 16 bit | Авторский - Василий Горчаков |

    MedifInfo

    Видео
    Идентификатор : 1
    Формат : AVC
    Формат/Информация : Advanced Video Codec
    Профиль формата : [email protected]
    Параметр CABAC формата : Да
    Параметр ReFrames формата : 5 кадров
    Идентификатор кодека : V_MPEG4/ISO/AVC
    Продолжительность : 1 ч. 26 м.
    Битрейт : 3499 Кбит/сек
    Ширина : 696 пикселей
    Высота : 574 пикселя
    Соотношение сторон : 1,213
    Режим частоты кадров : Постоянный
    Частота кадров : 60,000 кадров/сек
    Цветовое пространство : YUV
    Субдискретизация насыщенности : 4:2:0
    Битовая глубина : 8 бит
    Тип развёртки : Прогрессивная
    Бит/(Пиксели*Кадры) : 0.146
    Размер потока : 2,08 Гбайт (84%)
    Заголовок : www.60-fps.org
    Библиотека кодирования : x264 core 148 r2744 b97ae06
    Настройки программы : cabac=1 / ref=5 / deblock=1:-3:-3 / analyse=0x3:0x113 / me=umh / subme=8 / psy=1 / psy_rd=1.00:0.25 / mixed_ref=1 / me_range=32 / chroma_me=1 / trellis=1 / 8x8dct=1 / cqm=0 / deadzone=6,6 / fast_pskip=1 / chroma_qp_offset=-4 / threads=12 / lookahead_threads=2 / sliced_threads=0 / nr=0 / decimate=0 / interlaced=0 / bluray_compat=0 / constrained_intra=0 / bframes=3 / b_pyramid=2 / b_adapt=1 / b_bias=0 / direct=3 / weightb=1 / open_gop=0 / weightp=2 / keyint=600 / keyint_min=60 / scenecut=40 / intra_refresh=0 / rc_lookahead=50 / rc=2pass / mbtree=1 / bitrate=3499 / ratetol=1.0 / qcomp=0.80 / qpmin=0 / qpmax=69 / qpstep=4 / cplxblur=20.0 / qblur=0.5 / vbv_maxrate=62500 / vbv_bufsize=78125 / nal_hrd=none / filler=0 / ip_ratio=1.10 / aq=1:0.50
    Default : Да
    Forced : Нет
    Аудио #1
    Идентификатор : 2
    Формат : AC-3
    Формат/Информация : Audio Coding 3
    Расширение режима : CM (complete main)
    Параметр Endianness формата : Big
    Идентификатор кодека : A_AC3
    Продолжительность : 1 ч. 26 м.
    Вид битрейта : Постоянный
    Битрейт : 192 Кбит/сек
    Каналы : 2 канала
    Расположение каналов : Front: L R
    Частота : 48,0 КГц
    Битовая глубина : 16 бит
    Метод сжатия : С потерями
    Размер потока : 119 Мбайт (5%)
    Заголовок : Профессиональный многоголосый закадровый
    Язык : Russian
    Default : Да
    Forced : Нет
    Аудио #2
    Идентификатор : 3
    Формат : AC-3
    Формат/Информация : Audio Coding 3
    Расширение режима : CM (complete main)
    Параметр Endianness формата : Big
    Идентификатор кодека : A_AC3
    Продолжительность : 1 ч. 26 м.
    Вид битрейта : Постоянный
    Битрейт : 192 Кбит/сек
    Каналы : 2 канала
    Расположение каналов : Front: L R
    Частота : 48,0 КГц
    Битовая глубина : 16 бит
    Метод сжатия : С потерями
    Размер потока : 119 Мбайт (5%)
    Заголовок : Авторский - Юрий Сербин
    Язык : Russian
    Default : Нет
    Forced : Нет
    Аудио #3
    Идентификатор : 4
    Формат : AC-3
    Формат/Информация : Audio Coding 3
    Расширение режима : CM (complete main)
    Параметр Endianness формата : Big
    Идентификатор кодека : A_AC3
    Продолжительность : 1 ч. 26 м.
    Вид битрейта : Постоянный
    Битрейт : 192 Кбит/сек
    Каналы : 2 канала
    Расположение каналов : Front: L R
    Частота : 48,0 КГц
    Битовая глубина : 16 бит
    Метод сжатия : С потерями
    Размер потока : 119 Мбайт (5%)
    Заголовок : Авторский - Василий Горчаков
    Язык : Russian
    Default : Нет
    Forced : Нет

    Release was prepared by 60-fps.org



You cannot post new topics in this forum
You cannot reply to topics in this forum
You cannot edit your posts in this forum
You cannot delete your posts in this forum
You cannot vote in polls in this forum
You cannot attach files in this forum
You cannot download files in this forum