[Цитировать]
Kryl

Китайский сервиз (1999) DVDRip | 60fps -- Информация о фильме
Название: Китайский сервиз
Год выхода: 1999
Жанр: Авантюрная комедия
Режиссер: Виталий Москаленко
Продюсер: Александр Литвинов, Наталья Попова
В ролях: Олег Янковский, Сергей Безруков, Владимир Меньшов, Сергей Никоненко, Анна Самохина, Богдан Ступка, Сергей Габриэлян, Александр Резалин, Ирина Безрукова, Михаил Булатов, Юрий Думчев, Сергей Рубеко.
----О фильме:
1913 год. Самый комфортабельный и богатый речной пароход «Святитель Николай» идёт по Волге из Царицына в Нижний Новгород на празднование 300-летия Дома Романовых. Известно, что мошенники попытаются обыграть в покер Фрола Сатановского, одного из самых богатых купцов Российской империи. Кто же в честной компании шулер — правительственный инспектор граф Строганов, нефтяной магнат Максуд Хундамов, скотопромышленник Коля Сидихин или… певица Волошина, которая поёт в корабельном казино? А ещё на пароходе инкогнито едет знаменитый сыщик Мышко…- - Страна: Россия
Продолжительность: 01:35:23
--Файл
Кодек: MPEG4/ISO/AVC H.264
Формат: MKV
Качество: DVDRip
Видео: 716 x 576 (1.243) | 60.000 fps | 5.0 Мбит/сек
Аудио 1: AC3 | 5.1 | 48 kHz | 448 kbps | 16 bit

MedifInfo

Видео
Идентификатор : 1
Формат : AVC
Формат/Информация : Advanced Video Codec
Профиль формата : High@L4.1
Параметр CABAC формата : Да
Параметр ReFrames формата : 8 кадров
Идентификатор кодека : V_MPEG4/ISO/AVC
Продолжительность : 1 ч. 35 м.
Битрейт : 4999 Кбит/сек
Ширина : 716 пикселей
Высота : 576 пикселей
Соотношение сторон : 5:4
Режим частоты кадров : Постоянный
Частота кадров : 60,000 кадров/сек
Цветовое пространство : YUV
Субдискретизация насыщенности : 4:2:0
Битовая глубина : 8 бит
Тип развёртки : Прогрессивная
Бит/(Пиксели*Кадры) : 0.202
Размер потока : 3,26 Гбайт (90%)
Заголовок : www.60-fps.org
Библиотека кодирования : x264 core 129 r2245 bc13772
Настройки программы : cabac=1 / ref=8 / deblock=1:-2:-2 / analyse=0x3:0x133 / me=esa / subme=9 / psy=1 / psy_rd=1.00:0.25 / mixed_ref=1 / me_range=32 / chroma_me=1 / trellis=2 / 8x8dct=1 / cqm=0 / deadzone=6,6 / fast_pskip=1 / chroma_qp_offset=-4 / threads=12 / lookahead_threads=2 / sliced_threads=0 / nr=0 / decimate=0 / interlaced=0 / bluray_compat=0 / constrained_intra=0 / bframes=3 / b_pyramid=2 / b_adapt=2 / b_bias=0 / direct=3 / weightb=1 / open_gop=0 / weightp=2 / keyint=600 / keyint_min=60 / scenecut=40 / intra_refresh=0 / rc_lookahead=60 / rc=2pass / mbtree=1 / bitrate=4999 / ratetol=1.0 / qcomp=0.80 / qpmin=0 / qpmax=69 / qpstep=4 / cplxblur=19.0 / qblur=0.0 / ip_ratio=1.10 / aq=1:0.50
Язык : English
Default : Нет
Forced : Нет
Аудио
Идентификатор : 2
Формат : AC-3
Формат/Информация : Audio Coding 3
Расширение режима : CM (complete main)
Параметр Endianness формата : Big
Идентификатор кодека : A_AC3
Продолжительность : 1 ч. 35 м.
Вид битрейта : Постоянный
Битрейт : 448 Кбит/сек
Каналы : 6 каналов
Расположение каналов : Front: L C R, Side: L R, LFE
Частота : 48,0 КГц
Битовая глубина : 16 бит
Метод сжатия : С потерями
Размер потока : 306 Мбайт (8%)
Заголовок : www.60-fps.org
Язык : Russian
Default : Нет
Forced : Нет

Релиз подготовлен 60 - fps

 
Показать сообщения:    

Текущее время: 06-Дек 15:08

Часовой пояс: UTC + 3


Вы не можете начинать темы
Вы не можете отвечать на сообщения
Вы не можете редактировать свои сообщения
Вы не можете удалять свои сообщения
Вы не можете голосовать в опросах
Вы не можете прикреплять файлы к сообщениям
Вы не можете скачивать файлы