[Цитировать]
sir.zelyony

- -«Восьмое чудо света»- Информация
Название: Кинг Конг
Оригинальное название: King Kong
Год выпуска: 2005 г.
Жанр: боевик, драма, мелодрама, приключения, фэнтези
Страна: Новая Зеландия, США, Германия
Режиссер: Питер Джексон
Продолжительность: 03:20:07
В ролях: Наоми Уоттс, Эдриан Броуди, Джек Блэк, Томас Кречман, Энди Серкис, Колин Хэнкс, Джейми Белл, Кайл Чандлер, Эван Парк, Лобо Чан
--Сюжет:
В 1930-м году съемочная группа под предводительством режиссера-неудачника Карла Дэнхэма отправляется на загадочный Остров Черепа неподалеку от Суматры, чтобы изучать легенды о гигантской горилле по кличке Конг. По прибытии на место они обнаруживают, что Кинг Конг и правда существует.
Горилла живет в самой чаще непроходимых джунглей, где помимо него, спрятанные от всего мира, обитают многие создания из доисторических времен. Исследователи оказываются между двух огней — с одной стороны Кинг Конг, а с другой — его враги динозавры...
- ФАЙЛ
Формат видео: MKV
Качество видео: BDRip 720p | 60 fps
Видео кодек: MPEG4/ISO/AVC H.264
Аудио кодек: AC3
Видео: 1280x544 (2.35:1) | 59.940 fps | 6.9 Mbps
Аудио#1: AC3 | 5.1 | 48.0 kHz | 448 kbps | 16 bits Дубляж
Аудио#2: AC3 | 5.1 | 48.0 kHz | 448 kbps | 16 bits Киномания
Аудио#3: AC3 | 5.1 | 48.0 kHz | 448 kbps | 16 bits Гланц/Королёва
Аудио#4: AC3 | 5.1 | 48.0 kHz | 448 kbps | 16 bits Гаврилов
Аудио#5: AC3 | 5.1 | 48.0 kHz | 640 kbps | 16 bits Оригинал
Субтитры: /

MI

General
Unique ID : 230899437564853948183038501762352784379 (0xADB59D3551A5752784FBFBA5023FA3FB)
Complete name : d:\VIDEO\TORRENT\King_Kong_2005\King_Kong_2005_720p_60fps.mkv
Format : Matroska
Format version : Version 2
File size : 13.1 GiB
Duration : 3h 20mn
Overall bit rate : 9 368 Kbps
Movie name : King_Kong_2005
Encoded date : UTC 2016-09-23 19:20:24
Writing application : mkvmerge v4.3.0 ('Escape from the Island') сборка от Sep 28 2010 23:42:10
Writing library : libebml v1.0.0 + libmatroska v1.0.0
Video
ID : 1
Format : AVC
Format/Info : Advanced Video Codec
Format profile : High@L4.1
Format settings, CABAC : Yes
Format settings, ReFrames : 5 frames
Muxing mode : Header stripping
Codec ID : V_MPEG4/ISO/AVC
Duration : 3h 20mn
Bit rate : 6 981 Kbps
Width : 1 280 pixels
Height : 544 pixels
Display aspect ratio : 2.35:1
Frame rate mode : Constant
Frame rate : 60.000 fps
Original frame rate : 59.940 fps
Color space : YUV
Chroma subsampling : 4:2:0
Bit depth : 8 bits
Scan type : Progressive
Bits/(Pixel*Frame) : 0.167
Stream size : 9.43 GiB (72%)
Title : King_Kong_2005
Writing library : x264 core 130 r2273 b3065e6
Encoding settings : cabac=1 / ref=5 / deblock=1:-2:-1 / analyse=0x3:0 / me=umh / subme=11 / psy=1 / psy_rd=1.00:0.00 / mixed_ref=1 / me_range=32 / chroma_me=1 / trellis=2 / 8x8dct=1 / cqm=0 / deadzone=21,11 / fast_pskip=0 / chroma_qp_offset=-4 / threads=12 / lookahead_threads=1 / sliced_threads=0 / nr=0 / decimate=1 / interlaced=0 / bluray_compat=0 / constrained_intra=0 / bframes=5 / b_pyramid=2 / b_adapt=2 / b_bias=0 / direct=1 / weightb=1 / open_gop=0 / weightp=2 / keyint=250 / keyint_min=25 / scenecut=40 / intra_refresh=0 / rc=abr / mbtree=0 / bitrate=6981 / ratetol=2.0 / qcomp=0.60 / qpmin=0 / qpmax=69 / qpstep=4 / ip_ratio=1.40 / pb_ratio=1.30 / aq=1:1.00
Language : English
Default : Yes
Forced : No
Color range : Limited
Color primaries : BT.709
Transfer characteristics : BT.709
Matrix coefficients : BT.709
Audio #1
ID : 2
Format : AC-3
Format/Info : Audio Coding 3
Mode extension : CM (complete main)
Format settings, Endianness : Big
Muxing mode : Header stripping
Codec ID : A_AC3
Duration : 3h 20mn
Bit rate mode : Constant
Bit rate : 448 Kbps
Channel(s) : 6 channels
Channel positions : Front: L C R, Side: L R, LFE
Sampling rate : 48.0 KHz
Compression mode : Lossy
Stream size : 641 MiB (5%)
Title : Dub
Language : Russian
Default : Yes
Forced : No
Audio #2
ID : 3
Format : AC-3
Format/Info : Audio Coding 3
Mode extension : CM (complete main)
Format settings, Endianness : Big
Muxing mode : Header stripping
Codec ID : A_AC3
Duration : 3h 20mn
Bit rate mode : Constant
Bit rate : 448 Kbps
Channel(s) : 6 channels
Channel positions : Front: L C R, Side: L R, LFE
Sampling rate : 48.0 KHz
Compression mode : Lossy
Stream size : 641 MiB (5%)
Title : Kinomanija
Language : Russian
Default : No
Forced : No
Audio #3
ID : 4
Format : AC-3
Format/Info : Audio Coding 3
Mode extension : CM (complete main)
Format settings, Endianness : Big
Muxing mode : Header stripping
Codec ID : A_AC3
Duration : 3h 20mn
Bit rate mode : Constant
Bit rate : 448 Kbps
Channel(s) : 6 channels
Channel positions : Front: L C R, Side: L R, LFE
Sampling rate : 48.0 KHz
Compression mode : Lossy
Stream size : 641 MiB (5%)
Title : Glanz_Korolyova
Language : Russian
Default : No
Forced : No
Audio #4
ID : 5
Format : AC-3
Format/Info : Audio Coding 3
Mode extension : CM (complete main)
Format settings, Endianness : Big
Muxing mode : Header stripping
Codec ID : A_AC3
Duration : 3h 20mn
Bit rate mode : Constant
Bit rate : 448 Kbps
Channel(s) : 6 channels
Channel positions : Front: L C R, Side: L R, LFE
Sampling rate : 48.0 KHz
Compression mode : Lossy
Stream size : 641 MiB (5%)
Title : Gavrilov
Language : Russian
Default : No
Forced : No
Audio #5
ID : 6
Format : AC-3
Format/Info : Audio Coding 3
Mode extension : CM (complete main)
Format settings, Endianness : Big
Muxing mode : Header stripping
Codec ID : A_AC3
Duration : 3h 20mn
Bit rate mode : Constant
Bit rate : 640 Kbps
Channel(s) : 6 channels
Channel positions : Front: L C R, Side: L R, LFE
Sampling rate : 48.0 KHz
Compression mode : Lossy
Stream size : 916 MiB (7%)
Title : Original
Language : English
Default : No
Forced : No
Text #1
ID : 7
Format : UTF-8
Codec ID : S_TEXT/UTF8
Codec ID/Info : UTF-8 Plain Text
Title : rus_full
Language : Russian
Default : No
Forced : No
Text #2
ID : 8
Format : UTF-8
Codec ID : S_TEXT/UTF8
Codec ID/Info : UTF-8 Plain Text
Title : eng_full
Language : English
Default : No
Forced : No
Menu
00:00:00.000 : en:Chapter 1
00:05:00.016 : en:Chapter 2
00:10:00.082 : en:Chapter 3
00:15:00.032 : en:Chapter 4
00:20:00.048 : en:Chapter 5
00:25:00.031 : en:Chapter 6
00:30:00.014 : en:Chapter 7
00:35:00.064 : en:Chapter 8
00:40:00.014 : en:Chapter 9
00:45:00.013 : en:Chapter 10
00:50:00.030 : en:Chapter 11
00:55:00.030 : en:Chapter 12
01:00:00.013 : en:Chapter 13
01:05:00.029 : en:Chapter 14
01:10:00.045 : en:Chapter 15
01:15:00.028 : en:Chapter 16
01:20:00.061 : en:Chapter 17
01:25:00.044 : en:Chapter 18
01:30:00.061 : en:Chapter 19
01:35:00.027 : en:Chapter 20
01:40:00.027 : en:Chapter 21
01:45:00.027 : en:Chapter 22
01:50:00.076 : en:Chapter 23
01:55:00.026 : en:Chapter 24
02:00:00.009 : en:Chapter 25
02:05:00.042 : en:Chapter 26
02:10:00.075 : en:Chapter 27
02:15:00.075 : en:Chapter 28
02:20:00.041 : en:Chapter 29
02:25:00.074 : en:Chapter 30
02:30:00.007 : en:Chapter 31
02:35:00.057 : en:Chapter 32
02:40:00.057 : en:Chapter 33
02:45:00.073 : en:Chapter 34
02:50:00.073 : en:Chapter 35
02:55:00.056 : en:Chapter 36
03:00:00.022 : en:Chapter 37
03:05:00.055 : en:Chapter 38
03:10:00.038 : en:Chapter 39
03:15:00.021 : en:Chapter 40
03:20:00.038 : en:Chapter 41
-

Топик был перенесен из форума Temp в форум Зарубежные фильмы 60 FPS
Kryl

[Цитировать]
Одиссей

Благодарю за релиз.Супер !!!

[Цитировать]
h2o

Кино никак не перематывается на телеке.

[Цитировать]
Медведь

Звук DTS можно прилепить или киньте дорогу пожалуйста.

[Цитировать]
77blues77

продолжение часть 2 сделай пожайлуста Улыбаюсь
 
Показать сообщения:    

Текущее время: 06-Дек 15:09

Часовой пояс: UTC + 3


Вы не можете начинать темы
Вы не можете отвечать на сообщения
Вы не можете редактировать свои сообщения
Вы не можете удалять свои сообщения
Вы не можете голосовать в опросах
Вы не можете прикреплять файлы к сообщениям
Вы не можете скачивать файлы