Властелин колец: Трилогия / The Lord of the Rings: Trilogy (2001-2003) BDRip-AVC | Extended Cut | 60 fps Принц Персии: Пески времени / Prince of Persia: The Sands of Time (2010) BDRip 1080p | 60 fps День, когда Земля остановилась / The Day the Earth Stood Still (2008) BDRip 1080p | 60 fps Удивительное путешествие доктора Дулиттла / Dolittle (2020) BDRip 1080p | 60 fps Охота / The Hunt (2020) BDRip 1080p | 60 fps Пятый элемент / The Fifth Element (1997) BDRip 1080p | 60 fps К звёздам / Ad Astra (2019) BDRip 1080p | 60 fps Фантастическая четверка : Дилогия / Fantastic Four: Dilogy (2005-2007) BDRip 1080p | 60 fps
  1. Longevity:
    3 years 8 months
    Posts:
    24
    Gender:
    Male
    Подмигиваю ЕСЛИ ВЫ ВИДИТЕ ЧТО НА РАЗДАЧЕ НЕТ НЕКОГО,ТО КАЧАЙТЕ НЕ СМОТРЯ НЕ НА ЧТО Крутой ТАК КАК НАС СЕЙЧАС ПЫТАЮТСЯ ЗАПРЕТИТЬ В РОССИИ И ИЗ ЗА ЭТОГО МОИ РАЗДАЧИ СЕЙЧАС НЕ ВИДНЫ... , ПЫТАЮТСЯ ЗАПРЕТИТЬ МНЕ РАЗДАВАТЬ ВАМ ФИЛЬМЫ, НО ХРЕНУШКИ ПалецИМ - ПО ФАКТУ МЫ РАЗДАЁМ ВСЕ ФИЛЬМЫ БЕЗ КАКИХ ЛИБО ПРОБЛЕМ, ПРОСТО ИХ НЕ ВИДНО ТЕПЕРЬ В СИДАХ... Подмигиваю
    «A greedy film producer assembles a team of moviemakers and sets out for the infamous Skull Island, where they find more than just cannibalistic natives» Информация
    Название: Кинг Конг
    Оригинальное название: King Kong
    Год выхода: 2005
    Релиз на Blu-ray / цифровой релиз: 10 февраля 2009
    Жанр: боевик, драма, мелодрама, приключения, фэнтези
    Режиссер: Питер Джексон
    Сценарий: Фрэн Уолш, Филиппа Бойенс, Питер Джексон
    Продюсер: Жан Бленкин, Кэролинн Каннингэм, Питер Джексон
    В ролях: Наоми Уоттс, Эдриан Броуди, Джек Блэк, Томас Кречман, Энди Серкис, Колин Хэнкс, Джейми Белл, Кайл Чандлер, Эван Парк, Лобо Чан
    --Сюжет:
    В 1930-м году съемочная группа под предводительством режиссера-неудачника Карла Дэнхэма отправляется на загадочный Остров Черепа неподалеку от Суматры, чтобы изучать легенды о гигантской горилле по кличке Конг. По прибытии на место они обнаруживают, что Кинг Конг и правда существует.
    Горилла живет в самой чаще непроходимых джунглей, где помимо него, спрятанные от всего мира, обитают многие создания из доисторических времен. Исследователи оказываются между двух огней - с одной стороны Кинг Конг, а с другой - его враги динозавры...
    -- Страна: Новая Зеландия, США, Германия
    Продолжительность: 3ч 20м

    Файл
    Кодек: V_MPEG4/ISO/AVC/
    Формат: MKV / High@L4.1
    Качество: BDRip 1080p | 60 fps
    Видео: 1916 x 816 (2.35:1) | 59.940 fps | 14.0 Мбит/сек
    Аудио 1: AC-3 | 5.1 | 48 kHz | 448 Кбит/сек | 16 bit | Многоголосный/Dub |
    Аудио 2: AC-3 | 5.1 | 48 kHz | 448 Кбит/сек | 16 bit | Многоголосный/Kinomanija |
    Аудио 3: DTS-HD MA | 5.1 | 48 kHz | 448 Кбит/сек | 16 bit | Многоголосый/P. Glanc & I. Koroleva |
    Аудио 4: DTS-HD MA | 5.1 | 48 kHz | 448 Кбит/сек | 16 bit | Многоголосый/Gavrilov |
    Аудио 5: DTS-HD MA | 5.1 | 48 kHz | 448 Кбит/сек | 16 bit | English |
    Субтитры: Ru/Eng

    MedifInfo

    General
    Unique ID : 245930919104905740779180548699888699329 (0xB9049277788D06F8A69C4A180E5247C1)
    Complete name : D:\Movie\King Kong.2005.1080p.60fps.mkv
    Format : Matroska
    Format version : Version 2
    File size : 23.0 GiB
    Duration : 3 h 20 min
    Overall bit rate : 16.5 Mb/s
    Movie name : King Kong.2005.1080p.60fps
    Encoded date : UTC 2014-02-05 06:25:27
    Writing application : mkvmerge v5.8.0 ('No Sleep / Pillow') built on Sep 2 2012 15:37:04
    Writing library : libebml v1.2.3 + libmatroska v1.3.0
    Video
    ID : 1
    Format : AVC
    Format/Info : Advanced Video Codec
    Format profile : High@L4.1
    Format settings : CABAC / 5 Ref Frames
    Format settings, CABAC : Yes
    Format settings, Reference : 5 frames
    Codec ID : V_MPEG4/ISO/AVC
    Duration : 3 h 20 min
    Bit rate : 14.0 Mb/s
    Width : 1 916 pixels
    Height : 816 pixels
    Display aspect ratio : 2.35:1
    Frame rate mode : Constant
    Frame rate : 59.940 (60000/1001) FPS
    Color space : YUV
    Chroma subsampling : 4:2:0
    Bit depth : 8 bits
    Scan type : Progressive
    Bits/(Pixel*Frame) : 0.150
    Stream size : 19.2 GiB (83%)
    Title : King Kong.2005.1080p.60fps
    Writing library : x264 core 140 r2377 1ca7bb9
    Encoding settings : cabac=1 / ref=5 / deblock=1:-2:-1 / analyse=0x3:0x133 / me=umh / subme=11 / psy=1 / psy_rd=1.00:0.00 / mixed_ref=1 / me_range=32 / chroma_me=1 / trellis=2 / 8x8dct=1 / cqm=0 / deadzone=21,11 / fast_pskip=0 / chroma_qp_offset=-2 / threads=12 / lookahead_threads=1 / sliced_threads=0 / nr=0 / decimate=1 / interlaced=0 / bluray_compat=0 / constrained_intra=0 / bframes=5 / b_pyramid=2 / b_adapt=2 / b_bias=0 / direct=3 / weightb=1 / open_gop=0 / weightp=2 / keyint=250 / keyint_min=25 / scenecut=40 / intra_refresh=0 / rc=2pass / mbtree=0 / bitrate=14049 / ratetol=2.0 / qcomp=0.60 / qpmin=0 / qpmax=69 / qpstep=4 / cplxblur=20.0 / qblur=0.5 / ip_ratio=1.40 / pb_ratio=1.30 / aq=1:0.90
    Language : English
    Default : Yes
    Forced : No
    Audio #1
    ID : 2
    Format : AC-3
    Format/Info : Audio Coding 3
    Commercial name : Dolby Digital
    Codec ID : A_AC3
    Duration : 3 h 20 min
    Bit rate mode : Constant
    Bit rate : 448 kb/s
    Channel(s) : 6 channels
    Channel layout : L R C LFE Ls Rs
    Sampling rate : 48.0 kHz
    Frame rate : 31.250 FPS (1536 SPF)
    Compression mode : Lossy
    Stream size : 641 MiB (3%)
    Title : Dub
    Language : Russian
    Service kind : Complete Main
    Default : Yes
    Forced : No
    Audio #2
    ID : 3
    Format : AC-3
    Format/Info : Audio Coding 3
    Commercial name : Dolby Digital
    Codec ID : A_AC3
    Duration : 3 h 20 min
    Bit rate mode : Constant
    Bit rate : 448 kb/s
    Channel(s) : 6 channels
    Channel layout : L R C LFE Ls Rs
    Sampling rate : 48.0 kHz
    Frame rate : 31.250 FPS (1536 SPF)
    Compression mode : Lossy
    Stream size : 641 MiB (3%)
    Title : Kinomanija
    Language : Russian
    Service kind : Complete Main
    Default : No
    Forced : No
    Audio #3
    ID : 4
    Format : AC-3
    Format/Info : Audio Coding 3
    Commercial name : Dolby Digital
    Codec ID : A_AC3
    Duration : 3 h 20 min
    Bit rate mode : Constant
    Bit rate : 448 kb/s
    Channel(s) : 6 channels
    Channel layout : L R C LFE Ls Rs
    Sampling rate : 48.0 kHz
    Frame rate : 31.250 FPS (1536 SPF)
    Compression mode : Lossy
    Stream size : 641 MiB (3%)
    Title : P. Glanc & I. Koroleva
    Language : Russian
    Service kind : Complete Main
    Default : No
    Forced : No
    Audio #4
    ID : 5
    Format : AC-3
    Format/Info : Audio Coding 3
    Commercial name : Dolby Digital
    Codec ID : A_AC3
    Duration : 3 h 20 min
    Bit rate mode : Constant
    Bit rate : 448 kb/s
    Channel(s) : 6 channels
    Channel layout : L R C LFE Ls Rs
    Sampling rate : 48.0 kHz
    Frame rate : 31.250 FPS (1536 SPF)
    Compression mode : Lossy
    Stream size : 641 MiB (3%)
    Title : Gavrilov
    Language : Russian
    Service kind : Complete Main
    Default : No
    Forced : No
    Audio #5
    ID : 6
    Format : AC-3
    Format/Info : Audio Coding 3
    Commercial name : Dolby Digital
    Codec ID : A_AC3
    Duration : 3 h 20 min
    Bit rate mode : Constant
    Bit rate : 640 kb/s
    Channel(s) : 6 channels
    Channel layout : L R C LFE Ls Rs
    Sampling rate : 48.0 kHz
    Frame rate : 31.250 FPS (1536 SPF)
    Compression mode : Lossy
    Stream size : 916 MiB (4%)
    Title : Eng
    Language : English
    Service kind : Complete Main
    Default : No
    Forced : No
    Text #1
    ID : 7
    Format : UTF-8
    Codec ID : S_TEXT/UTF8
    Codec ID/Info : UTF-8 Plain Text
    Title : rus full
    Language : Russian
    Default : No
    Forced : No
    Text #2
    ID : 8
    Format : UTF-8
    Codec ID : S_TEXT/UTF8
    Codec ID/Info : UTF-8 Plain Text
    Title : eng full
    Language : English
    Default : No
    Forced : No
    Menu
    00:00:00.000 : :Chapter 01
    00:05:00.000 : :Chapter 02
    00:10:00.000 : :Chapter 03
    00:15:00.000 : :Chapter 04
    00:20:00.000 : :Chapter 05
    00:25:00.000 : :Chapter 06
    00:30:00.000 : :Chapter 07
    00:35:00.000 : :Chapter 08
    00:40:00.000 : :Chapter 09
    00:45:00.000 : :Chapter 10
    00:50:00.000 : :Chapter 11
    00:55:00.000 : :Chapter 12
    01:00:00.000 : :Chapter 13
    01:05:00.000 : :Chapter 14
    01:10:00.000 : :Chapter 15
    01:15:00.000 : :Chapter 16
    01:20:00.000 : :Chapter 17
    01:25:00.000 : :Chapter 18
    01:30:00.000 : :Chapter 19
    01:35:00.000 : :Chapter 20
    01:40:00.000 : :Chapter 21
    01:45:00.000 : :Chapter 22
    01:50:00.000 : :Chapter 23
    01:55:00.000 : :Chapter 24
    02:00:00.000 : :Chapter 25
    02:05:00.000 : :Chapter 26
    02:10:00.000 : :Chapter 27
    02:15:00.000 : :Chapter 28
    02:20:00.000 : :Chapter 29
    02:25:00.000 : :Chapter 30
    02:30:00.000 : :Chapter 31
    02:35:00.000 : :Chapter 32
    02:40:00.000 : :Chapter 33
    02:45:00.000 : :Chapter 34
    02:50:00.000 : :Chapter 35
    02:55:00.000 : :Chapter 36
    03:00:00.000 : :Chapter 37
    03:05:00.000 : :Chapter 38
    03:10:00.000 : :Chapter 39
    03:15:00.000 : :Chapter 40
    03:20:00.000 : :Chapter 41


You cannot post new topics in this forum
You cannot reply to topics in this forum
You cannot edit your posts in this forum
You cannot delete your posts in this forum
You cannot vote in polls in this forum
You cannot attach files in this forum
You cannot download files in this forum