Luis Fonsi - Despacito ft. Daddy Yankee (2017) WEBRip 1080p | 60 fps Kylie Minogue - All The Lovers (2010) BDRip 1080p | 60 fps AOA - Excuse Me (2017) WEBRip 1080p | 60 fps Iowa- Улыбайся (2012) Full HD 1080p | 60 fps Andreea Balan - Like a Bunny (2011) HDCam 1080p | 60 fps Rihanna - Pour It Up (Explicit) (2013) HD 720p | 60 fps Robin Thicke feat. T.I. And Pharrell - Blurred Lines (2013) Full HD 1080p | 60 fps Бьянка - Sexy Frau (2015) Full HD 1080p | 60 fps
  1. Longevity:
    4 years 4 months
    Posts:
    244
    Gender:
    Male
    --Kim Petras - Icy (2019) Full HD 1080p | 60 fps --Информация о Клипе
    Исполнитель: Christina Aguilera
    Название: Your Body
    Год выхода: 2019
    Продолжительность: 00:03:11-Файл
    Кодек: MPEG4/ISO/AVC/ H.264
    Формат: MKV
    Качество: MasterRip 1080p
    Видео: 1920 x 1080 (16:9) at 60.000 fps 30.0 Мбит/сек
    Аудио: AC3 | 640 Кбит/сек | 44.1 KHz | 2 channels

    MI

    Общее
    Уникальный идентификатор : 211444775170113063302131493667660721460 (0x9F12C84BEB4F571686F4517269796D34)
    Полное имя : C:\For Convert\Converted\Kim Petras - Icy.60fps.mkv
    Формат : Matroska
    Версия формата : Version 2
    Размер файла : 698 Мбайт
    Продолжительность : 3 м. 11 с.
    Общий поток : 30,6 Мбит/сек
    Дата кодирования : UTC 2020-11-27 08:38:50
    Программа кодирования : mkvmerge v7.8.0 ('River Man') 32bit built on Apr 3 2015 12:11:22
    Библиотека кодирования : libebml v1.3.1 + libmatroska v1.4.2
    Видео
    Идентификатор : 1
    Формат : AVC
    Формат/Информация : Advanced Video Codec
    Профиль формата : [email protected]
    Параметр CABAC формата : Да
    Параметр ReFrames формата : 4 кадра
    Идентификатор кодека : V_MPEG4/ISO/AVC
    Продолжительность : 3 м. 11 с.
    Битрейт : 30,0 Мбит/сек
    Ширина : 1920 пикселей
    Высота : 1080 пикселей
    Соотношение сторон : 16:9
    Режим частоты кадров : Постоянный
    Частота кадров : 57,542 кадров/сек
    Цветовое пространство : YUV
    Субдискретизация насыщенности : 4:2:0
    Битовая глубина : 8 бит
    Тип развёртки : Прогрессивная
    Бит/(Пиксели*Кадры) : 0.251
    Размер потока : 670 Мбайт (96%)
    Библиотека кодирования : x264 core 146 r2538 121396c
    Настройки программы : cabac=1 / ref=4 / deblock=1:-1:-1 / analyse=0x3:0x113 / me=hex / subme=8 / psy=1 / psy_rd=1.00:0.15 / mixed_ref=1 / me_range=16 / chroma_me=1 / trellis=1 / 8x8dct=1 / cqm=0 / deadzone=21,11 / fast_pskip=1 / chroma_qp_offset=-3 / threads=12 / lookahead_threads=3 / sliced_threads=0 / nr=0 / decimate=1 / interlaced=0 / bluray_compat=0 / constrained_intra=0 / bframes=3 / b_pyramid=2 / b_adapt=2 / b_bias=0 / direct=3 / weightb=1 / open_gop=0 / weightp=2 / keyint=599 / keyint_min=59 / scenecut=40 / intra_refresh=0 / rc_lookahead=40 / rc=2pass / mbtree=1 / bitrate=30000 / ratetol=1.0 / qcomp=0.60 / qpmin=0 / qpmax=69 / qpstep=4 / cplxblur=20.0 / qblur=0.5 / vbv_maxrate=50000 / vbv_bufsize=50000 / nal_hrd=none / filler=0 / ip_ratio=1.40 / aq=1:1.00
    Default : Да
    Forced : Нет
    Аудио
    Идентификатор : 2
    Формат : AC-3
    Формат/Информация : Audio Coding 3
    Расширение режима : CM (complete main)
    Параметр Endianness формата : Big
    Идентификатор кодека : A_AC3
    Продолжительность : 3 м. 11 с.
    Вид битрейта : Постоянный
    Битрейт : 640 Кбит/сек
    Каналы : 2 канала
    Расположение каналов : Front: L R
    Частота : 44,1 КГц
    Частота кадров : 28,711 кадров/сек (1536 spf)
    Битовая глубина : 16 бит
    Метод сжатия : С потерями
    Размер потока : 14,6 Мбайт (2%)
    Default : Да
    Forced : Нет

    Release was prepared by 60-fps.org



You cannot post new topics in this forum
You cannot reply to topics in this forum
You cannot edit your posts in this forum
You cannot delete your posts in this forum
You cannot vote in polls in this forum
You cannot attach files in this forum
You cannot download files in this forum