Luis Fonsi - Despacito ft. Daddy Yankee (2017) WEBRip 1080p | 60 fps Kylie Minogue - All The Lovers (2010) BDRip 1080p | 60 fps AOA - Excuse Me (2017) WEBRip 1080p | 60 fps Iowa- Улыбайся (2012) Full HD 1080p | 60 fps Andreea Balan - Like a Bunny (2011) HDCam 1080p | 60 fps Rihanna - Pour It Up (Explicit) (2013) HD 720p | 60 fps Robin Thicke feat. T.I. And Pharrell - Blurred Lines (2013) Full HD 1080p | 60 fps Бьянка - Sexy Frau (2015) Full HD 1080p | 60 fps
  1. Longevity:
    6 years 4 months
    Posts:
    283
    Gender:
    Male
    Кайрат Баекенов и группа Формат - Махаббат| HDTVRip (2014) 1080p | 60 fps

    Информация о Клипе:
    Исполнители:Кайрат Баекенов и группа Формат
    Название:Махаббат
    Год выпуска: 2014 г.
    Жанр: Поп
    Страна: Казахстан
    Продолжительность: 03.57мин

    Файл:
    Формат видео: MKV
    Качество видео:HDTVRip 1080p | 60fps
    Видео кодек: H.264
    Аудио кодек: AC3
    Видео: 1920x796 | 59.940 fps | 4990 Кбит/сек
    Аудио: AC3 | 2 channels | 48 kHz |384 Кбит/сек

    Автор Релиза:Kamikkadze

    Отчёт MediaInfo

    Видео
    Идентификатор : 1
    Формат : AVC
    Формат/Информация : Advanced Video Codec
    Профиль формата : [email protected]
    Параметр CABAC формата : Да
    Параметр ReFrames формата : 4 кадра
    Идентификатор кодека : V_MPEG4/ISO/AVC
    Продолжительность : 3 м. 57 с.
    Битрейт : 4990 Кбит/сек
    Ширина : 1920 пикселей
    Высота : 796 пикселей
    Соотношение сторон : 2,40:1
    Режим частоты кадров : Постоянный
    Частота кадров : 59,880 кадров/сек
    Частота кадров в оригинале : 59,940 кадров/сек
    Цветовое пространство : YUV
    Субдискретизация насыщенности : 4:2:0
    Битовая глубина : 8 бит
    Тип развёртки : Прогрессивная
    Бит/(Пиксели*Кадры) : 0.055
    Размер потока : 141 Мбайт (91%)
    Заголовок : Rip By Kamikkadze(Специально для Сайта 60-fps.org)
    Библиотека кодирования : x264 core 130 r2273 b3065e6
    Настройки программы : cabac=1 / ref=4 / deblock=1:-2:-1 / analyse=0x3:0x113 / me=umh / subme=10 / psy=1 / psy_rd=1.00:0.20 / mixed_ref=1 / me_range=24 / chroma_me=1 / trellis=2 / 8x8dct=1 / cqm=0 / deadzone=21,11 / fast_pskip=0 / chroma_qp_offset=-3 / threads=6 / lookahead_threads=1 / sliced_threads=0 / nr=0 / decimate=1 / interlaced=0 / bluray_compat=0 / constrained_intra=0 / bframes=3 / b_pyramid=2 / b_adapt=2 / b_bias=0 / direct=3 / weightb=1 / open_gop=0 / weightp=2 / keyint=250 / keyint_min=25 / scenecut=40 / intra_refresh=0 / rc_lookahead=60 / rc=crf / mbtree=1 / crf=21.0 / qcomp=0.60 / qpmin=0 / qpmax=69 / qpstep=4 / vbv_maxrate=50000 / vbv_bufsize=50000 / crf_max=0.0 / nal_hrd=none / ip_ratio=1.40 / aq=1:1.00
    Default : Да
    Forced : Нет
    Аудио
    Идентификатор : 2
    Формат : AC-3
    Формат/Информация : Audio Coding 3
    Расширение режима : CM (complete main)
    Параметр Endianness формата : Big
    Идентификатор кодека : A_AC3
    Продолжительность : 3 м. 57 с.
    Вид битрейта : Постоянный
    Битрейт : 384 Кбит/сек
    Каналы : 2 канала
    Расположение каналов : Front: L R
    Частота : 48,0 КГц
    Битовая глубина : 16 бит
    Метод сжатия : С потерями
    Размер потока : 10,9 Мбайт (7%)
    Заголовок : Rip By Kamikkadze(Специально для Сайта 60-fps.org)
    Default : Да
    Forced : Нет


You cannot post new topics in this forum
You cannot reply to topics in this forum
You cannot edit your posts in this forum
You cannot delete your posts in this forum
You cannot vote in polls in this forum
You cannot attach files in this forum
You cannot download files in this forum