1. Longevity:
    7 years 1 month
    Posts:
    2422
    Gender:
    Male
    -Katy Perry ft. Snoop Dogg - California (2010) HD 1080p | 60 fps- -Информация о Клипе
    Исполнитель: Katy Perry ft. Snoop Dogg
    Название: California
    Год выхода: 2010
    Продолжительность: 00:03:55-Файл
    Кодек: MPEG4/ISO/AVC/ H.264
    Формат: MKV
    Качество: HD 1080p | 60 fps
    Видео : 1920 x 1080 (1.778) at 59.940 fps 25.0Мбит/сек
    Аудио : AC-3 | 448 Кбит/сек | 48,0 KHz | 2.0 channels

    MI

    Общее
    Уникальный идентификатор : 185014772007567703604184084088746559805 (0x8B308C8867029C629023093D16DA493D)
    Полное имя : H:\Clips\Katy Perry - California Gurls (feat Snoop Dogg).1080p.60fps.mkv
    Формат : Matroska
    Версия формата : Version 2
    Размер файла : 717 Мбайт
    Продолжительность : 3 м. 55 с.
    Общий поток : 25,5 Мбит/сек
    Дата кодирования : UTC 2021-02-13 12:45:00
    Программа кодирования : mkvmerge v5.8.0 ('No Sleep / Pillow') built on Sep 2 2012 15:37:04
    Библиотека кодирования : libebml v1.2.3 + libmatroska v1.3.0
    Видео
    Идентификатор : 1
    Формат : AVC
    Формат/Информация : Advanced Video Codec
    Профиль формата : High@L4.1
    Параметр CABAC формата : Да
    Параметр ReFrames формата : 4 кадра
    Режим смешивания : Header stripping
    Идентификатор кодека : V_MPEG4/ISO/AVC
    Продолжительность : 3 м. 55 с.
    Битрейт : 25,0 Мбит/сек
    Ширина : 1920 пикселей
    Высота : 1080 пикселей
    Соотношение сторон : 16:9
    Режим частоты кадров : Постоянный
    Частота кадров : 59,940 (60000/1001) кадров/сек
    Цветовое пространство : YUV
    Субдискретизация насыщенности : 4:2:0
    Битовая глубина : 8 бит
    Тип развёртки : Прогрессивная
    Бит/(Пиксели*Кадры) : 0.201
    Размер потока : 685 Мбайт (96%)
    Библиотека кодирования : x264 core 146 r2538 121396c
    Настройки программы : cabac=1 / ref=4 / deblock=1:0:0 / analyse=0x3:0x113 / me=umh / subme=8 / psy=1 / psy_rd=1.00:0.25 / mixed_ref=1 / me_range=16 / chroma_me=1 / trellis=1 / 8x8dct=1 / cqm=0 / deadzone=6,6 / fast_pskip=1 / chroma_qp_offset=-4 / threads=12 / lookahead_threads=3 / sliced_threads=0 / nr=0 / decimate=0 / interlaced=0 / bluray_compat=0 / constrained_intra=0 / bframes=3 / b_pyramid=2 / b_adapt=2 / b_bias=0 / direct=3 / weightb=1 / open_gop=0 / weightp=2 / keyint=600 / keyint_min=60 / scenecut=40 / intra_refresh=0 / rc_lookahead=50 / rc=2pass / mbtree=1 / bitrate=25000 / ratetol=1.0 / qcomp=0.80 / qpmin=0 / qpmax=69 / qpstep=4 / cplxblur=20.0 / qblur=0.5 / vbv_maxrate=50000 / vbv_bufsize=50000 / nal_hrd=none / filler=0 / ip_ratio=1.10 / aq=1:0.50
    Язык : English
    Default : Да
    Forced : Нет
    Аудио
    Идентификатор : 2
    Формат : AC-3
    Формат/Информация : Audio Coding 3
    Расширение режима : CM (complete main)
    Параметр Endianness формата : Big
    Режим смешивания : Header stripping
    Идентификатор кодека : A_AC3
    Продолжительность : 3 м. 55 с.
    Вид битрейта : Постоянный
    Битрейт : 640 Кбит/сек
    Каналы : 2 канала
    Расположение каналов : Front: L R
    Частота : 44,1 КГц
    Частота кадров : 28,711 кадров/сек (1536 spf)
    Битовая глубина : 16 бит
    Метод сжатия : С потерями
    Размер потока : 18,0 Мбайт (3%)
    Default : Да
    Forced : Нет

    Release was prepared by 60-fps.org

  2. Longevity:
    4 years 3 months
    Posts:
    4
    Gender:
    Unknown
    Встаньте на раздачу
    откуда вы достали ета видео? (60 fps)
    11-Aug-2017 14:52 (after 1 year 7 months)
  3. Longevity:
    3 years 4 months
    Posts:
    65
    Gender:
    Male
    Please upload the torrent file again
    13-Feb-2021 05:38 (after 3 years 6 months)
  4. Longevity:
    4 years 10 months
    Posts:
    336
    Gender:
    Male
    Updated
    13-Feb-2021 15:48 (after 10 hours)


You cannot post new topics in this forum
You cannot reply to topics in this forum
You cannot edit your posts in this forum
You cannot delete your posts in this forum
You cannot vote in polls in this forum
You cannot attach files in this forum
You cannot download files in this forum