LOBODA - Парень (2018) WEBRip 1080p | 60 fps Alice Merton - No Roots (2017) WEBRip 1080p | 60 fps Schiller: Zeitreise Live (2016) BDRip 720p | 60fps Jennifer Lopez - I'm Into You ft. Lil Wayne (2011) Full HD 1080p | 60 fps Snoop Dogg - Wet (2011) Full HD 1080p | 60 fps Katy Perry - Bon Appétit ft. Migos (2017) Full HD 1080p | 60 fps Dan Balan - Chica Bomb (2010) WEBRip 1080p | 60 fps Serebro - В Космосе (2017) Full HD 1080p | 60 fps
  1. Стаж:
    3 года 6 месяцев
    Сообщений:
    2283
    Пол:
    Мужской
    -Katy Perry ft. Snoop Dogg - California (2010) HD 1080p | 60 fps- -Информация о Клипе
    Исполнитель: Katy Perry ft. Snoop Dogg
    Название: California
    Год выхода: 2010
    Продолжительность: 00:03:55-Файл
    Кодек: MPEG4/ISO/AVC/ H.264
    Формат: MKV
    Качество: HD 1080p | 60 fps
    Видео : 1920 x 1080 (1.778) at 59.940 fps 25.0Мбит/сек
    Аудио : AC-3 | 448 Кбит/сек | 48,0 KHz | 2.0 channels

    MI

    Видео
    Идентификатор : 1
    Формат : AVC
    Формат/Информация : Advanced Video Codec
    Профиль формата : High@L4.2
    Параметр CABAC формата : Да
    Параметр ReFrames формата : 3 кадра
    Идентификатор кодека : V_MPEG4/ISO/AVC
    Продолжительность : 3 м. 55 с.
    Вид битрейта : Переменный
    Битрейт : 24,3 Мбит/сек
    Максимальный битрейт : 25,0 Мбит/сек
    Ширина : 1920 пикселей
    Высота : 1080 пикселей
    Соотношение сторон : 16:9
    Режим частоты кадров : Постоянный
    Частота кадров : 59,880 кадров/сек
    Частота кадров в оригинале : 59,940 кадров/сек
    Стандарт вещания : PAL
    Цветовое пространство : YUV
    Субдискретизация насыщенности : 4:2:0
    Битовая глубина : 8 бит
    Тип развёртки : Прогрессивная
    Бит/(Пиксели*Кадры) : 0.196
    Размер потока : 683 Мбайт (96%)
    Заголовок : www.69-fps.org
    Язык : English
    Default : Да
    Forced : Нет
    Основные цвета : BT.709
    Характеристики трансфера : BT.709
    Коэффициенты матрицы : BT.709
    colour_range : Limited
    Аудио
    Идентификатор : 2
    Формат : AC-3
    Формат/Информация : Audio Coding 3
    Профиль формата : Dolby Digital
    Расширение режима : CM (complete main)
    Параметр Endianness формата : Big
    Идентификатор кодека : A_AC3
    Продолжительность : 3 м. 55 с.
    Вид битрейта : Постоянный
    Битрейт : 448 Кбит/сек
    Каналы : 2 канала
    Расположение каналов : Front: L R
    Частота : 48,0 КГц
    Битовая глубина : 16 бит
    Метод сжатия : С потерями
    Задержка видео : 24 мс.
    Размер потока : 12,6 Мбайт (2%)
    Заголовок : AC-3
    Default : Да
    Forced : Нет

    Релиз подготовлен 60 - fps

  2. Стаж:
    8 месяцев 10 дней
    Сообщений:
    4
    Пол:
    Не указан
    Сообщение появиться после проверки модератором
    11-Авг-2017 14:52 (спустя 1 год 7 месяцев)


Вы не можете начинать темы
Вы не можете отвечать на сообщения
Вы не можете редактировать свои сообщения
Вы не можете удалять свои сообщения
Вы не можете голосовать в опросах
Вы не можете прикреплять файлы к сообщениям
Вы не можете скачивать файлы