Lady Gaga - Poker Face (2009) Master | ProRes Jennifer Lopez ft. Iggy Azalea - Booty (2014) Master | 60fps Jennifer Lopez - I'm Into You ft. Lil Wayne (2011) Master | ProRes
  1. Longevity:
    6 years 7 months
    Posts:
    2414
    Gender:
    Male
    -Katy Perry - Wide Awake (2012) Master | ProRes --Информация о Клипе
    Исполнитель: Katy Perry
    Название: Wide Awake
    Год выхода: 2012
    Продолжительность: 00:04:46-Описание:
    «Wide Awake» — песня американской певицы Кэти Перри. Она стала 2 синглом с переиздания альбома Teenage Dream — Teenage Dream: The Complete Confection. Песня была записана для автобиографического фильма Кэти Katy Perry: Part of Me, который вышел в июле 2012.
    Критики очень позитивно высказались о песне, назвав её лучшей балладой Кэти со времен «Thinking of You». Эми Сиаретто из PopCrush похвалил серьезный тон голоса певицы, после поставив 4 звезды из 5-ти возможных. А Билл Ламб из «About.com» поставив 4 из 5-ти очков, назвал песню лучшей «мейнстримовой» 2012 года.
    -Файл
    Кодек: APCH
    Контейнер: MOV
    Формат: ProRes
    Качество: Master
    Видео: 1920 x 1080 (1.778) | 23.976 | 167 Мбит/сек
    Аудио: PCM | 1536 Кбит/сек | 2 канала, 48.0 КГц

    MI

    Формат : QuickTime
    Формат/Информация : Original Apple specifications
    Размер файла : 5,44 Гбайт
    Продолжительность : 4 м. 36 с.
    Режим общего битрейта : Переменный
    Общий поток : 169 Мбит/сек
    Дата кодирования : UTC 2012-06-14 01:25:02
    Дата пометки : UTC 2012-06-14 14:49:56
    Библиотека кодирования : Apple QuickTime 7.7.2
    com.apple.quicktime.player.movie.audio.m : (Binary)
    Видео
    Идентификатор : 2
    Формат : ProRes
    Версия формата : Version 0
    Профиль формата : High
    Идентификатор кодека : apch
    Продолжительность : 4 м. 36 с.
    Продолжительность оригинала : 4 м. 46 с.
    Вид битрейта : Переменный
    Битрейт : 167 Мбит/сек
    Ширина : 1920 пикселей
    Высота : 1080 пикселей
    Соотношение сторон : 16:9
    Режим частоты кадров : Постоянный
    Частота кадров : 23,976 кадра/сек
    Цветовое пространство : YUV
    Субдискретизация насыщенности : 4:2:2
    Тип развёртки : Прогрессивная
    Бит/(Пиксели*Кадры) : 3.355
    Размер потока : 5,37 Гбайт (99%)
    Размер потока оригинала : 5,39 Гбайт (99%)
    Библиотека кодирования : Apple
    Язык : English
    Дата кодирования : UTC 2012-06-14 01:25:02
    Дата пометки : UTC 2012-06-14 14:49:57
    Коэффициенты матрицы : BT.709
    Аудио
    Идентификатор : 1
    Формат : PCM
    Параметр Endianness формата : Big
    Параметр Sign формата : Signed
    Идентификатор кодека : twos
    Продолжительность : 4 м. 36 с.
    Продолжительность оригинала : 4 м. 46 с.
    Вид битрейта : Постоянный
    Битрейт : 1536 Кбит/сек
    Каналы : 2 канала
    Расположение каналов : Front: L R
    Частота : 48,0 КГц
    Битовая глубина : 16 бит
    Размер потока : 50,7 Мбайт (1%)
    Размер потока оригинала : 52,4 Мбайт (1%)
    Язык : English
    Дата кодирования : UTC 2012-06-14 01:25:02
    Дата пометки : UTC 2012-06-14 14:49:56

    Release was prepared by 60-fps.org



You cannot post new topics in this forum
You cannot reply to topics in this forum
You cannot edit your posts in this forum
You cannot delete your posts in this forum
You cannot vote in polls in this forum
You cannot attach files in this forum
You cannot download files in this forum