[Цитировать]
Kryl

-Katy Perry - Wide Awake (2012) Master 1080p | 60 fps- Информация о Клипе
Исполнитель: Katy Perry
Название: Wide Awake
Год выхода: 2012
Продолжительность: 00:04:46-Файл
Кодек: MPEG4/ISO/AVC/ H.264
Формат: MKV
Качество: MasterRip 1080p
Видео: 1920 x 1080 (1.778) at 59.880 fps 27,4 Мбит/сек
Аудио: AC-3 | 640 Кбит/сек | 48.0 KHz | 2 channels
Аудио: DTS | 1413 Кбит/сек | 48.0 KHz | 2 channels
Видео начинается с 10 секунды .

MI

Видео
Идентификатор : 1
Формат : AVC
Формат/Информация : Advanced Video Codec
Профиль формата : Main@L4.2
Параметр CABAC формата : Да
Параметр ReFrames формата : 3 кадра
Параметр GOP формата : M=4, N=59
Идентификатор кодека : V_MPEG4/ISO/AVC
Продолжительность : 4 м. 46 с.
Битрейт : 27,4 Мбит/сек
Ширина : 1920 пикселей
Высота : 1080 пикселей
Соотношение сторон : 16:9
Режим частоты кадров : Постоянный
Частота кадров : 59,880 кадров/сек
Частота кадров в оригинале : 59,940 кадров/сек
Стандарт вещания : NTSC
Цветовое пространство : YUV
Субдискретизация насыщенности : 4:2:0
Битовая глубина : 8 бит
Тип развёртки : Прогрессивная
Бит/(Пиксели*Кадры) : 0.221
Размер потока : 936 Мбайт (91%)
Язык : English
Default : Да
Forced : Нет
Основные цвета : BT.709
Характеристики трансфера : BT.709
Коэффициенты матрицы : BT.709
colour_range : Limited
Аудио #1
Идентификатор : 2
Формат : AC-3
Формат/Информация : Audio Coding 3
Расширение режима : CM (complete main)
Параметр Endianness формата : Big
Идентификатор кодека : A_AC3
Продолжительность : 4 м. 46 с.
Вид битрейта : Постоянный
Битрейт : 640 Кбит/сек
Каналы : 2 канала
Расположение каналов : Front: L R
Частота : 48,0 КГц
Битовая глубина : 16 бит
Метод сжатия : С потерями
Размер потока : 21,8 Мбайт (2%)
Язык : English
Default : Да
Forced : Нет
Аудио #2
Идентификатор : 3
Формат : DTS
Формат/Информация : Digital Theater Systems
Режим : 16
Параметр Endianness формата : Big
Идентификатор кодека : A_DTS
Продолжительность : 4 м. 46 с.
Вид битрейта : Постоянный
Битрейт : 1413 Кбит/сек
Каналы : 2 канала
Расположение каналов : Front: L R
Частота : 48,0 КГц
Битовая глубина : 16 бит
Метод сжатия : С потерями
Размер потока : 48,2 Мбайт (5%)
Язык : English
Default : Нет
Forced : Нет

Релиз подготовлен 60 - fps

[Цитировать]
ZHz

очередное обновление?

[Цитировать]
kamikkadze

Народ встаньте на раздачу)

[Цитировать]
Kryl

3236Народ встаньте на раздачу)
Если только завтра .. к вечеру смогу раздать ..
у меня весь комп забит задачами )

[Цитировать]
kamikkadze

3237
3236Народ встаньте на раздачу)
Если только завтра .. к вечеру смогу раздать ..
у меня весь комп забит задачами )
ок,пусть тогда в клиенте повисит))) и спасибо)
 
Показать сообщения:    

Текущее время: 06-Дек 15:07

Часовой пояс: UTC + 3


Вы не можете начинать темы
Вы не можете отвечать на сообщения
Вы не можете редактировать свои сообщения
Вы не можете удалять свои сообщения
Вы не можете голосовать в опросах
Вы не можете прикреплять файлы к сообщениям
Вы не можете скачивать файлы