Lady Gaga - Poker Face (2009) Master | ProRes Jennifer Lopez ft. Iggy Azalea - Booty (2014) Master | 60fps Jennifer Lopez - I'm Into You ft. Lil Wayne (2011) Master | ProRes Lady Gaga - Bad Romance (2009) Master | ProRes
  1. Longevity:
    6 years 5 months
    Posts:
    2414
    Gender:
    Male
    -Katy Perry - Unconditionally (2013) Master | ProRes --Информация о Клипе
    Исполнитель: Katy Perry
    Название: Unconditionally
    Год выхода: 2014
    Продолжительность: 00:03:44-Описание:
    «Unconditionally» (рус. Безусловно) — песня, записанная американской певицей Кэти Перри для её четвёртого студийного альбома Prism (2013). Композиция была написана Перри, продюсерами выступили Макс Мартин и Лукаш Готвальд. Песня официально была выпущена синглом 16 октября, однако поступила в продажу с выходом альбома, 22 октября. Текст песни повествует о безоговорочной любви к одному человеку. Перри сообщила, что «Unconditionally» является её любимой песней с альбома и посвящена Джону Майеру. Также, Перри заявила, что писала данную композицию 5 месяцев.
    Сразу после выхода песня получила положительные отзывы от музыкальных критиков, которые отмечали вокальное исполнение Перри и новый стиль в создании инструментальной композиции. Песня заняла 14 строчку в американском чарте Billboard Hot 100, став первым релизом Перри за последние 5 лет, который не вошёл в первую десятку чарта.
    -Файл
    Кодек: APCH
    Контейнер: MOV
    Формат: ProRes
    Качество: Master
    Видео: 1920 x 1080 (1.778) | 23.976 | 172 Мбит/сек
    Аудио: PCM | 2304 Кбит/сек | 2 канала, 48.0 КГц

    MI

    Format : MPEG-4
    Format profile : QuickTime
    Codec ID : qt 2005.03 (qt )
    File size : 4.79 GiB
    Duration : 3 min 56 s
    Overall bit rate mode : Variable
    Overall bit rate : 174 Mb/s
    Encoded date : UTC 2013-11-17 07:53:44
    Tagged date : UTC 2013-11-22 20:09:26
    Writing library : Apple QuickTime
    Media/UUID : DF6FB0ED-2C14-445A-99EC-6C5F7A693647
    com.apple.quicktime.player. : 7.7.1 (Dev)
    com.apple.quicktime.player. : 7.7.1 (1680.42)
    com.apple.quicktime.player. : (Binary)
    Video
    ID : 2
    Format : ProRes
    Format version : Version 0
    Format profile : 422 HQ
    Codec ID : apch
    Duration : 3 min 56 s
    Source duration : 3 min 56 s
    Bit rate mode : Variable
    Bit rate : 172 Mb/s
    Width : 1 920 pixels
    Height : 1 080 pixels
    Display aspect ratio : 16:9
    Frame rate mode : Constant
    Frame rate : 23.976 (23976/1000) FPS
    Color space : YUV
    Chroma subsampling : 4:2:2
    Scan type : Progressive
    Bits/(Pixel*Frame) : 3.452
    Stream size : 4.73 GiB (99%)
    Source stream size : 4.73 GiB (99%)
    Writing library : Apple
    Language : English
    Encoded date : UTC 2013-11-17 07:53:44
    Tagged date : UTC 2013-11-17 08:24:40
    Matrix coefficients : BT.709
    Audio
    ID : 1
    Format : PCM
    Format settings, Endianness : Big
    Format settings, Sign : Signed
    Codec ID : in24
    Duration : 3 min 56 s
    Bit rate mode : Constant
    Bit rate : 2 304 kb/s
    Channel(s) : 2 channels
    Channel positions : Front: L R
    Sampling rate : 48.0 kHz
    Bit depth : 24 bits
    Stream size : 65.0 MiB (1%)
    Language : English
    Encoded date : UTC 2013-11-17 07:53:44
    Tagged date : UTC 2013-11-22 20:09:26
    Text #1
    ID : 3-CC1
    Format : EIA-608
    Muxing mode : Final Cut / CDP
    Codec ID : c708
    Duration : 3 min 56 s
    Source duration : 4 min 31 s
    Bit rate mode : Constant
    Stream size : 0.00 Byte (0%)
    Source stream size : 712 KiB (0%)
    Language : English
    Forced : No
    Encoded date : UTC 2013-11-17 07:53:44
    Tagged date : UTC 2013-11-17 08:24:40
    CaptionServiceName : CC1
    Text #2
    ID : 3-1
    Format : EIA-708
    Muxing mode : Final Cut / CDP
    Codec ID : c708
    Duration : 3 min 56 s
    Source duration : 4 min 31 s
    Bit rate mode : Constant
    Stream size : 0.00 Byte (0%)
    Source stream size : 712 KiB (0%)
    Language : English
    Forced : No
    Encoded date : UTC 2013-11-17 07:53:44
    Tagged date : UTC 2013-11-17 08:24:40

    Release was prepared by 60-fps.org



You cannot post new topics in this forum
You cannot reply to topics in this forum
You cannot edit your posts in this forum
You cannot delete your posts in this forum
You cannot vote in polls in this forum
You cannot attach files in this forum
You cannot download files in this forum