[Цитировать]
Kryl

-Katy Perry - Unconditionally (2013) HD 720p | 60 fps- Информация о Клипе
Исполнитель: Katy Perry
Название: Unconditionally
Год выхода: 2013
Продолжительность: 00:03:55-Файл
Кодек: MPEG4/ISO/AVC/ H.264
Формат: MKV
Качество: MasterRip 720p
Видео: 1280 x 720 (1.778) at 59.880 fps 28,9 Мбит/сек
Аудио: AC-3 | 640 Кбит/сек | 48.0 KHz | 2 channels
Аудио: DTS | 1413 Кбит/сек | 48.0 KHz | 2 channels

MI

Видео
Идентификатор : 1
Формат : AVC
Формат/Информация : Advanced Video Codec
Профиль формата : Main@L4.1
Параметр CABAC формата : Да
Параметр ReFrames формата : 3 кадра
Идентификатор кодека : V_MPEG4/ISO/AVC
Продолжительность : 3 м. 54 с.
Битрейт : 28,9 Мбит/сек
Ширина : 1280 пикселей
Высота : 720 пикселей
Соотношение сторон : 16:9
Режим частоты кадров : Постоянный
Частота кадров : 59,880 кадров/сек
Частота кадров в оригинале : 59,940 кадров/сек
Стандарт вещания : NTSC
Цветовое пространство : YUV
Субдискретизация насыщенности : 4:2:0
Битовая глубина : 8 бит
Тип развёртки : Прогрессивная
Бит/(Пиксели*Кадры) : 0.524
Размер потока : 810 Мбайт (92%)
Заголовок : www.60-fps.org
Язык : English
Default : Да
Forced : Нет
Основные цвета : BT.709
Характеристики трансфера : BT.709
Коэффициенты матрицы : BT.709
colour_range : Limited
Аудио #1
Идентификатор : 2
Формат : AC-3
Формат/Информация : Audio Coding 3
Расширение режима : CM (complete main)
Параметр Endianness формата : Big
Идентификатор кодека : A_AC3
Продолжительность : 3 м. 54 с.
Вид битрейта : Постоянный
Битрейт : 640 Кбит/сек
Каналы : 2 канала
Расположение каналов : Front: L R
Частота : 48,0 КГц
Битовая глубина : 16 бит
Метод сжатия : С потерями
Задержка видео : 453 мс.
Размер потока : 17,9 Мбайт (2%)
Заголовок : www.60-fps.org
Default : Да
Forced : Нет
Аудио #2
Идентификатор : 3
Формат : DTS
Формат/Информация : Digital Theater Systems
Режим : 16
Параметр Endianness формата : Big
Идентификатор кодека : A_DTS
Продолжительность : 3 м. 54 с.
Вид битрейта : Постоянный
Битрейт : 1413 Кбит/сек
Каналы : 2 канала
Расположение каналов : Front: L R
Частота : 48,0 КГц
Битовая глубина : 16 бит
Метод сжатия : С потерями
Задержка видео : 459 мс.
Размер потока : 39,6 Мбайт (4%)
Заголовок : www.60-fps.org
Default : Нет
Forced : Нет

Релиз подготовлен 60 - fps

 
Показать сообщения:    

Текущее время: 18-Окт 05:07

Часовой пояс: UTC + 3


Вы не можете начинать темы
Вы не можете отвечать на сообщения
Вы не можете редактировать свои сообщения
Вы не можете удалять свои сообщения
Вы не можете голосовать в опросах
Вы не можете прикреплять файлы к сообщениям
Вы не можете скачивать файлы