Lady Gaga - Poker Face (2009) Master | ProRes Jennifer Lopez ft. Iggy Azalea - Booty (2014) Master | 60fps Jennifer Lopez - I'm Into You ft. Lil Wayne (2011) Master | ProRes
  1. Longevity:
    6 years 7 months
    Posts:
    2414
    Gender:
    Male
    -Katy Perry - The One That Got Away (2011) Master | ProRes --Информация о Клипе
    Исполнитель: Katy Perry
    Название: The One That Got Away
    Год выхода: 2013
    Продолжительность: 00:04:50-Описание:
    «The One That Got Away» — песня в стиле поп-рок, исполненная американской певицей и автором Кэти Перри. Перри также выступила в роли автора песни. Релиз сингла состоялся 11 октября 2011 года, видеоклип вышел 11 ноября. Также в поддержку сингла была выпущена альтернативная версия песни с участием рэпера B.o.B.
    Сингл занял третье место в чарте Billboard Hot 100, став шестым синглом с Teenage Dream, вошедшим в лучшую десятку чарта.
    -Файл
    Кодек: APCH
    Контейнер: MOV
    Формат: ProRes
    Качество: Master
    Видео: 1920 x 1080 (1.778) | 25.000 | 183 Мбит/сек
    Аудио: PCM | 2304 Кбит/сек | 2.0 канала, 48.0 КГц

    MI

    Формат : MPEG-4
    Профиль формата : QuickTime
    Идентификатор кодека : qt
    Размер файла : 6,28 Гбайт
    Продолжительность : 4 м. 50 с.
    Режим общего битрейта : Переменный
    Общий поток : 186 Мбит/сек
    Дата кодирования : UTC 2011-11-10 15:00:39
    Дата пометки : UTC 2011-11-10 15:16:53
    Библиотека кодирования : Apple QuickTime
    Видео
    Идентификатор : 1
    Формат : ProRes
    Версия формата : Version 0
    Профиль формата : High
    Идентификатор кодека : apch
    Продолжительность : 4 м. 50 с.
    Вид битрейта : Переменный
    Битрейт : 183 Мбит/сек
    Ширина : 1920 пикселей
    Высота : 1080 пикселей
    Соотношение сторон : 16:9
    Режим частоты кадров : Постоянный
    Частота кадров : 25,000 кадров/сек
    Цветовое пространство : YUV
    Субдискретизация насыщенности : 4:2:2
    Тип развёртки : Прогрессивная
    Бит/(Пиксели*Кадры) : 3.535
    Размер потока : 6,20 Гбайт (99%)
    Библиотека кодирования : arh0
    Язык : English
    Дата кодирования : UTC 2011-11-10 15:00:41
    Дата пометки : UTC 2011-11-10 15:16:53
    Основные цвета : BT.709
    Характеристики трансфера : BT.709
    Коэффициенты матрицы : BT.709
    matrix_coefficients_Original : BT.709
    Аудио
    Идентификатор : 2
    Формат : PCM
    Параметр Endianness формата : Little
    Параметр Sign формата : Unsigned
    Идентификатор кодека : in24
    Продолжительность : 4 м. 50 с.
    Вид битрейта : Постоянный
    Битрейт : 2304 Кбит/сек
    Каналы : 2 канала
    Расположение каналов : Front: L R
    Частота : 48,0 КГц
    Битовая глубина : 24 бит
    Размер потока : 79,8 Мбайт (1%)
    Язык : English
    Дата кодирования : UTC 2011-11-10 15:00:41
    Дата пометки : UTC 2011-11-10 15:16:53

    Release was prepared by 60-fps.org



You cannot post new topics in this forum
You cannot reply to topics in this forum
You cannot edit your posts in this forum
You cannot delete your posts in this forum
You cannot vote in polls in this forum
You cannot attach files in this forum
You cannot download files in this forum