[Цитировать]
Kryl

-Katy Perry - Rise (2016) BDRip 1080p | 60 fps- -Информация
Исполнитель: Katy Perry
Название: Rise
Год выхода: 2016
Продолжительность: 00:03:23
Описание:
Песня Кэти Перри «Rise» стала гимном Олимпийских игр в Рио-де-Жанейро.
В клипе певица борется с привязанным к ней парашютом, пытаясь продвигаться вперед. Кэти идет по пустынным утесам, висит над обрывом и едва не тонет в реке. Режиссером видео на композицию стал Пол Гор.
-Файл
Кодек: MPEG4 | ISO/AVC | H.264 | High@L4.2
Формат: MKV
Качество: BDRip 1080p | 60 fps
Видео : 1920 x 808 (2.376) | 60.000 fps 25.0 Мбит/сек
Аудио : DTS | 1509 Кбит/сек | 48.0 KHz | 5.1 channels

MediaInfo

Видео
Идентификатор : 1
Формат : AVC
Формат/Информация : Advanced Video Codec
Профиль формата : High@L4.2
Параметр CABAC формата : Да
Параметр ReFrames формата : 3 кадра
Идентификатор кодека : V_MPEG4/ISO/AVC
Продолжительность : 3 м. 23 с.
Вид битрейта : Переменный
Битрейт : 23,9 Мбит/сек
Максимальный битрейт : 25,0 Мбит/сек
Ширина : 1920 пикселей
Высота : 808 пикселей
Соотношение сторон : 2,40:1
Режим частоты кадров : Постоянный
Частота кадров : 60,000 кадров/сек
Стандарт вещания : PAL
Цветовое пространство : YUV
Субдискретизация насыщенности : 4:2:0
Битовая глубина : 8 бит
Тип развёртки : Прогрессивная
Бит/(Пиксели*Кадры) : 0.257
Размер потока : 580 Мбайт (92%)
Заголовок : www.60-fps.org
Язык : English
Default : Да
Forced : Нет
Основные цвета : BT.709
Характеристики трансфера : BT.709
Коэффициенты матрицы : BT.709
colour_range : Limited
Аудио
Идентификатор : 2
Формат : DTS
Формат/Информация : Digital Theater Systems
Режим : 16
Параметр Endianness формата : Big
Идентификатор кодека : A_DTS
Продолжительность : 3 м. 23 с.
Вид битрейта : Постоянный
Битрейт : 1509 Кбит/сек
Каналы : 6 каналов
Расположение каналов : Front: L C R, Side: L R, LFE
Частота : 48,0 КГц
Битовая глубина : 24 бит
Метод сжатия : С потерями
Размер потока : 36,6 Мбайт (6%)
Заголовок : DTS
Default : Да
Forced : Нет

Релиз подготовлен 60 - fps

 
Показать сообщения:    

Текущее время: 05-Дек 01:25

Часовой пояс: UTC + 3


Вы не можете начинать темы
Вы не можете отвечать на сообщения
Вы не можете редактировать свои сообщения
Вы не можете удалять свои сообщения
Вы не можете голосовать в опросах
Вы не можете прикреплять файлы к сообщениям
Вы не можете скачивать файлы