Lady Gaga - Bad Romance (2009) Master | ProRes Ariana Grande The Weeknd - Love Me Harder (2014) Master | ProRes Lady Gaga - Poker Face (2009) Master | ProRes Lady Gaga - Paparazzi (2009) Master | ProRes Lady Gaga - Born This Way (2011) Master | ProRes Britney Spears - Hold It Against Me (2011) Master | ProRes Jennifer Lopez - Waiting For Tonight (1999) 540p | Master | ProRes Rihanna - Shut Up And Drive (2007) Master | ProRes
  1. Longevity:
    4 years 6 months
    Posts:
    2411
    Gender:
    Male
    -Katy Perry - Part Of Me (2012) Master | ProRes --Информация о Клипе
    Исполнитель: Katy Perry
    Название: Part Of Me
    Год выхода: 2012
    Продолжительность: 00:04:34-Описание:
    «Part of Me» — песня американской певицы Кэти Перри, выпущенная с переиздания её второго студийного альбома Teenage Dream: The Complete Confection в качестве первого сингла. Песня была написана Перри и Бонни МакКи, в то время как её производством занимались Лукаш Готвальд, Макс Мартин и Cirkut. Трек не был включён в оригинальное издание Teenage Dream, поскольку Перри считала, что он не соответствует композиции альбома. В конце 2010 года в сеть попала демо-версия песни; музыкальные критики, сравнившие её с предыдущим синглом «California Gurls», решили, что текст песни адресован бывшему парню Перри — Трэвису Маккою. «Part of Me» была переделана и официально выпущена 13 февраля 2012 года лейблом Capitol Records. Обложка к синглу была сделана фотографом Мэри Эллен Мэтьюс.
    С музыкальной точки зрения «Part of Me» состоит из таких жанров как данс-поп, поп-рок и сравнима с композицией певицы Джесси Джей «Domino» и предыдущими синглами Перри «Firework» и «California Gurls». Композиция наполнена элементами музыки в стиле хаус, несмотря на то, что текст песни указывает на эмоциональную поддержку после драматичного разрыва отношений. В целом песня получила положительные оценки современных критиков, которые похвалили её, хотя некоторые раскритиковали голос Перри. Критики и СМИ строили теории по поводу того, что текст песни адресован разводу Перри с её мужем Расселом Брендом. Певец позже опроверг такие утверждения, ссылаясь на то, что песня была написана в 2010 году.
    С коммерческой точки зрения сингл «Part of Me» был очень успешен, дебютировав в первой строчке чарта Billboard Hot 100, став при этом седьмым синглом певицы, который достиг первого места в чарте. Также песня дебютировала на первой строчке чартов Великобритании и Канады. Песня стала девятым синглом Перри, который достиг первой строчки в чарте Billboard Hot Dance Club Songs. Сингл был награждён платиновым сертификатом в США, Австралии и Новой Зеландии. Песня использовалась в некоторых маркетинговых кампаниях, таких как Adidas и The Sims 3: Шоу-Бизнес, а также была перепета Линдси Павао во втором сезоне американского реалити-шоу The Voice.
    Музыкальное видео на песню снималось на военной базе морской пехоты США Кэмп-Пендлтон, Оушенсайд (Калифорния). Видео демонстрирует как Перри добровольно поступает на службу в морскую пехоту, после разрыва отношений с парнем. Несмотря на то что видео получило положительные отзывы критиков, которые особенно хвалили заявление о «женской силе» Перри, оно также подверглось критике со стороны феминистического автора Наоми Вульф, которая считает, что такое видео является пропагандой вооруженных сил. Для продвижения песни, Перри выступила с ней на 54-й церемонии вручения «Грэмми», 2012 Kids’ Choice Awards, телешоу American Idol и др.
    -Файл
    Кодек: APCH
    Контейнер: MOV
    Формат: ProRes
    Качество: Master
    Видео: 1920 x 1080 (1.778) | 23.976 | 164 Мбит/сек
    Аудио: PCM | 6912 Кбит/сек | 5.1 канала, 48.0 КГц

    MI

    Формат : MPEG-4
    Профиль формата : QuickTime
    Идентификатор кодека : qt
    Размер файла : 5,45 Гбайт
    Продолжительность : 4 м. 34 с.
    Режим общего битрейта : Переменный
    Общий поток : 171 Мбит/сек
    Дата кодирования : UTC 2012-03-17 00:18:04
    Дата пометки : UTC 2012-03-17 00:25:09
    Библиотека кодирования : Apple QuickTime
    Видео
    Идентификатор : 1
    Формат : ProRes
    Версия формата : Version 0
    Профиль формата : High
    Идентификатор кодека : apch
    Продолжительность : 4 м. 34 с.
    Вид битрейта : Переменный
    Битрейт : 164 Мбит/сек
    Ширина : 1920 пикселей
    Высота : 1080 пикселей
    Соотношение сторон : 16:9
    Режим частоты кадров : Постоянный
    Частота кадров : 23,976 кадра/сек
    Цветовое пространство : YUV
    Субдискретизация насыщенности : 4:2:2
    Тип развёртки : Прогрессивная
    Бит/(Пиксели*Кадры) : 3.291
    Размер потока : 5,22 Гбайт (96%)
    Заголовок : Core Media Video
    Библиотека кодирования : Apple
    Дата кодирования : UTC 2012-03-17 00:18:04
    Дата пометки : UTC 2012-03-17 00:25:09
    Основные цвета : BT.709
    Характеристики трансфера : BT.709
    Коэффициенты матрицы : BT.709
    matrix_coefficients_Original : BT.709
    Аудио
    Идентификатор : 2
    Формат : PCM
    Параметр Endianness формата : Little
    Параметр Sign формата : Signed
    Идентификатор кодека : lpcm
    Продолжительность : 4 м. 34 с.
    Вид битрейта : Постоянный
    Битрейт : 6912 Кбит/сек
    Каналы : 6 каналов
    Расположение каналов : Front: L C R, Side: L R, LFE
    Частота : 48,0 КГц
    Битовая глубина : 24 бит
    Размер потока : 226 Мбайт (4%)
    Заголовок : Core Media Audio
    Дата кодирования : UTC 2012-03-17 00:18:04
    Дата пометки : UTC 2012-03-17 00:25:09
    Прочее
    Идентификатор : 3
    Тип : Time code
    Формат : QuickTime TC
    Продолжительность : 4 м. 34 с.
    Временной код первого кадра : 00:00:00:00
    TimeCode_Striped/String : Да
    Заголовок : Core Media Time Code
    Дата кодирования : UTC 2012-03-17 00:18:04
    Дата пометки : UTC 2012-03-17 00:25:09

    Release was prepared by 60 - fps

  2. Longevity:
    1 month 6 days
    Posts:
    15
    Gender:
    Unknown
    кто-нибудь пожалуйста встаньте на раздачу!!!!!!!!!!!!!!!!!
    19-Mar-2019 00:15 (after 1 year 8 months)


You cannot post new topics in this forum
You cannot reply to topics in this forum
You cannot edit your posts in this forum
You cannot delete your posts in this forum
You cannot vote in polls in this forum
You cannot attach files in this forum
You cannot download files in this forum