Lady Gaga - Bad Romance (2009) Master | ProRes Jennifer Lopez - Waiting For Tonight (1999) 540p | Master | ProRes Lady Gaga - Poker Face (2009) Master | ProRes Lady Gaga - Paparazzi (2009) Master | ProRes Britney Spears - Hold It Against Me (2011) Master | ProRes Rihanna feat. Drake - Work (2016) Master | ProRes Lady Gaga - Born This Way (2011) Master | ProRes Rihanna - Shut Up And Drive (2007) Master | ProRes
  1. Longevity:
    5 years 1 month
    Posts:
    2417
    Gender:
    Male
    -Katy Perry - Last Friday Night (T.G.I.F.) (2011) Master | ProRes -Информация о Клипе
    Исполнитель: Katy Perry
    Название: Last Friday Night (T.G.I.F.)
    Год выхода: 2011
    Продолжительность: 00:04:12-Описание:
    «Last Friday Night (T.G.I.F.)» — песня в стиле поп-рок, исполненная американской певицей и автором Кэти Перри. Песня написана самой Перри вместе с Dr. Luke, Max Martin, Bonnie McKee. Релиз песни состоялся 6 июня 2011 года, видеоклип вышел 14 июня. Песня достигла 1 позиции в Billboard Hot 100 и 1 позиции в Canadian Hot 100 в августе 2011. Также в поддержку сингла была выпущена альтернативная версия песни с участием Мисси Эллиотт.
    Сокращение «T.G.I.F.» означает «Thank God It’s Friday» (Слава Богу — пятница).
    В музыкальном видео на песню «Last Friday Night (T.G.I.F.)» снялся ряд знаменитостей: Ребекка Блэк (прославившаяся в марте 2011 с песней «Friday» и ставшим вирусным видеоклипом к ней), Кори Фельдман, Дебби Гибсон, Кенни Джи, группа Hanson, Кевин Макхейл и Даррен Крисс (известный по телесериалу «Хор»).
    -Файл
    Кодек: APCH
    Контейнер: MOV
    Формат: ProRes
    Качество: Master
    Видео: 1888 x 1062 (1.778) | 23.976 | 155 Мбит/сек
    Аудио: PCM | 2304 Кбит/сек | 2 канала, 48.0 КГц

    MI

    Формат : MPEG-4
    Профиль формата : QuickTime
    Идентификатор кодека : qt
    Размер файла : 4,64 Гбайт
    Продолжительность : 4 м. 12 с.
    Режим общего битрейта : Переменный
    Общий поток : 158 Мбит/сек
    Дата кодирования : UTC 2011-06-07 05:45:21
    Дата пометки : UTC 2011-06-07 05:49:24
    Библиотека кодирования : Apple QuickTime
    Media/UUID : 59506B6C-8CE9-481C-8CCA-3C3358D61D38
    Видео
    Идентификатор : 1
    Формат : ProRes
    Версия формата : Version 0
    Профиль формата : High
    Идентификатор кодека : apch
    Продолжительность : 4 м. 12 с.
    Вид битрейта : Переменный
    Битрейт : 155 Мбит/сек
    Ширина : 1888 пикселей
    Ширина оригинала : 1920 пикселей
    Высота : 1062 пикселя
    Высота оригинала : 1080 пикселей
    Соотношение сторон : 16:9
    Режим частоты кадров : Постоянный
    Частота кадров : 23,976 кадра/сек
    Цветовое пространство : YUV
    Субдискретизация насыщенности : 4:2:2
    Тип развёртки : Прогрессивная
    Бит/(Пиксели*Кадры) : 3.233
    Размер потока : 4,57 Гбайт (99%)
    Библиотека кодирования : Apple
    Язык : English
    Дата кодирования : UTC 2011-06-07 05:45:21
    Дата пометки : UTC 2011-06-07 05:49:24
    Основные цвета : BT.709
    Характеристики трансфера : BT.709
    Коэффициенты матрицы : BT.709
    matrix_coefficients_Original : BT.709
    Аудио
    Идентификатор : 2
    Формат : PCM
    Параметр Endianness формата : Little
    Параметр Sign формата : Unsigned
    Идентификатор кодека : in24
    Продолжительность : 4 м. 12 с.
    Вид битрейта : Постоянный
    Битрейт : 2304 Кбит/сек
    Каналы : 2 канала
    Расположение каналов : Front: L R
    Частота : 48,0 КГц
    Битовая глубина : 24 бит
    Размер потока : 69,4 Мбайт (1%)
    Язык : English
    Дата кодирования : UTC 2011-06-07 05:45:21
    Дата пометки : UTC 2011-06-07 05:49:24
    Прочее
    Идентификатор : 3
    Тип : Time code
    Формат : QuickTime TC
    Продолжительность : 4 м. 12 с.
    Временной код первого кадра : 01:00:12:13
    TimeCode_Striped/String : Да
    Язык : English
    Дата кодирования : UTC 2011-06-07 05:49:24
    Дата пометки : UTC 2011-06-07 05:49:24

    Release was prepared by 60 - fps

  2. Longevity:
    1 year 11 months
    Posts:
    2
    Gender:
    Unknown
    MUCHAS GRACIAS POR EL VIDEO !!
    08-Jul-2019 18:25 (after 2 years)


You cannot post new topics in this forum
You cannot reply to topics in this forum
You cannot edit your posts in this forum
You cannot delete your posts in this forum
You cannot vote in polls in this forum
You cannot attach files in this forum
You cannot download files in this forum