[Цитировать]
Kryl

-Katy Perry - Firework (2010) Master 1080p | 60 fps- Информация о Клипе
Исполнитель: Katy Perry
Название: Firework
Год выхода: 2010
Продолжительность: 00:03:55-Файл
Кодек: MPEG4/ISO/AVC/ H.264
Формат: MKV
Качество: MasterRip 1080p
Видео: 1920 x 816 (2.353) at 59.880 fps 23.3 Мбит/сек
Аудио: AC-3 | 640 Кбит/сек | 48.0 KHz | 2 channels
Аудио: DTS | 1413 Кбит/сек | 48.0 KHz | 2 channels

MI

Видео
Идентификатор : 1
Формат : AVC
Формат/Информация : Advanced Video Codec
Профиль формата : Main@L4.2
Параметр CABAC формата : Да
Параметр ReFrames формата : 3 кадра
Идентификатор кодека : V_MPEG4/ISO/AVC
Продолжительность : 3 м. 54 с.
Битрейт : 23,3 Мбит/сек
Ширина : 1920 пикселей
Высота : 816 пикселей
Соотношение сторон : 2,35:1
Режим частоты кадров : Постоянный
Частота кадров : 59,880 кадров/сек
Частота кадров в оригинале : 59,940 кадров/сек
Стандарт вещания : NTSC
Цветовое пространство : YUV
Субдискретизация насыщенности : 4:2:0
Битовая глубина : 8 бит
Тип развёртки : Прогрессивная
Бит/(Пиксели*Кадры) : 0.249
Размер потока : 654 Мбайт (90%)
Заголовок : www.60-fps.org
Язык : English
Default : Да
Forced : Нет
Основные цвета : BT.709
Характеристики трансфера : BT.709
Коэффициенты матрицы : BT.709
colour_range : Limited
Аудио #1
Идентификатор : 2
Формат : AC-3
Формат/Информация : Audio Coding 3
Расширение режима : CM (complete main)
Параметр Endianness формата : Big
Идентификатор кодека : A_AC3
Продолжительность : 3 м. 54 с.
Вид битрейта : Постоянный
Битрейт : 640 Кбит/сек
Каналы : 2 канала
Расположение каналов : Front: L R
Частота : 48,0 КГц
Битовая глубина : 16 бит
Метод сжатия : С потерями
Размер потока : 17,9 Мбайт (2%)
Заголовок : www.60-fps.org
Язык : English
Default : Да
Forced : Нет
Аудио #2
Идентификатор : 3
Формат : DTS
Формат/Информация : Digital Theater Systems
Режим : 16
Параметр Endianness формата : Big
Идентификатор кодека : A_DTS
Продолжительность : 3 м. 54 с.
Вид битрейта : Постоянный
Битрейт : 1413 Кбит/сек
Каналы : 2 канала
Расположение каналов : Front: L R
Частота : 48,0 КГц
Битовая глубина : 16 бит
Метод сжатия : С потерями
Размер потока : 39,6 Мбайт (5%)
Заголовок : www.60-fps.org
Язык : English
Default : Нет
Forced : Нет

Релиз подготовлен 60 - fps

[60-fps.org].t615.torrent
Торрент: Зарегистрирован [ 2015-04-27 07:39 ] · CF6F80216D840BE3A28C3A9FCD2320013432F8F7

Скачать .torrent

Скачать

15 KB

Статус: проверено
Скачан: 24 раз
Поблагодарили:
Размер: 726 MB
 
Похожие Темы

[Цитировать]
Kryl

2441Спасибо.Но подпись в правом верхнем-это лишнее.Надо быть скромнее.
Ввиду того , что материалы расходятся практически по все трекерам , и ни где не указывается ни автор , ни ресурс , то от меня другого не ждите .. , теперь клипы только с логотипом .

[Цитировать]
kamikkadze

2442
2441Спасибо.Но подпись в правом верхнем-это лишнее.Надо быть скромнее.
Ввиду того , что материалы расходятся практически по все трекерам , и ни где не указывается ни автор , ни ресурс , то от меня другого не ждите .. , теперь клипы только с логотипом .
Просто надо предупреждать,чтобы постили автора рипа,думаю им не составит труда)))

[Цитировать]
ZHz

мда, мелкая сетка вообще не тащит эти фейерверки

[Цитировать]
Kryl

2448мда, мелкая сетка вообще не тащит эти фейерверки
как раз то сетка и не мелкая ...

[Цитировать]
ZHz

как раз то сетка и не мелкая ...
а какая?

[Цитировать]
ZHz

Бедный ребенок, за что ты так с ним?
 
Показать сообщения:    

Текущее время: 20-Фев 07:10

Часовой пояс: UTC + 3


Вы не можете начинать темы
Вы не можете отвечать на сообщения
Вы не можете редактировать свои сообщения
Вы не можете удалять свои сообщения
Вы не можете голосовать в опросах
Вы не можете прикреплять файлы к сообщениям
Вы можете скачивать файлы