1. Longevity:
    6 years 6 months
    Posts:
    283
    Gender:
    Male
    Katy Perry - Firework (2010) Full HD 1080p | 60 fps

    Информация о Клипе:
    Исполнители:Katy Perry
    Название:Firework
    Год выпуска: 2010 г.
    Жанр: Поп
    Продолжительность: 03.54мин

    Файл:
    Формат видео: MKV
    Качество видео: Full HD 1080p | 60 fps
    Видео кодек: H.264
    Аудио кодек: AC3
    Видео: [email protected] | 1920 x 1080 | 60,000 кадров/сек | 25,0 Мбит/сек
    Аудио: AC-3 | 640 Кбит/сек | 48.0 KHz | 2 channels

    Автор Рипа:Kamikkadze

    MediaInfo

    Общее
    Общее
    Уникальный идентификатор : 220904488336467388844934066165606524505 (0xA630A82A2F10408E9E10097308E02659)
    Полное имя : H:\Clips\Katy Perry - Firework.1080p.60fps.mkv
    Формат : Matroska
    Версия формата : Version 2
    Размер файла : 719 Мбайт
    Продолжительность : 3 м. 54 с.
    Общий поток : 25,7 Мбит/сек
    Дата кодирования : UTC 2021-02-13 12:36:50
    Программа кодирования : mkvmerge v5.8.0 ('No Sleep / Pillow') built on Sep 2 2012 15:37:04
    Библиотека кодирования : libebml v1.2.3 + libmatroska v1.3.0
    Видео
    Идентификатор : 1
    Формат : AVC
    Формат/Информация : Advanced Video Codec
    Профиль формата : [email protected]
    Параметр CABAC формата : Да
    Параметр ReFrames формата : 4 кадра
    Режим смешивания : Header stripping
    Идентификатор кодека : V_MPEG4/ISO/AVC
    Продолжительность : 3 м. 54 с.
    Битрейт : 25,0 Мбит/сек
    Ширина : 1920 пикселей
    Высота : 1080 пикселей
    Соотношение сторон : 16:9
    Режим частоты кадров : Постоянный
    Частота кадров : 59,940 (60000/1001) кадров/сек
    Цветовое пространство : YUV
    Субдискретизация насыщенности : 4:2:0
    Битовая глубина : 8 бит
    Тип развёртки : Прогрессивная
    Бит/(Пиксели*Кадры) : 0.201
    Размер потока : 686 Мбайт (96%)
    Библиотека кодирования : x264 core 146 r2538 121396c
    Настройки программы : cabac=1 / ref=4 / deblock=1:0:0 / analyse=0x3:0x113 / me=umh / subme=8 / psy=1 / psy_rd=1.00:0.25 / mixed_ref=1 / me_range=16 / chroma_me=1 / trellis=1 / 8x8dct=1 / cqm=0 / deadzone=6,6 / fast_pskip=1 / chroma_qp_offset=-4 / threads=12 / lookahead_threads=3 / sliced_threads=0 / nr=0 / decimate=0 / interlaced=0 / bluray_compat=0 / constrained_intra=0 / bframes=3 / b_pyramid=2 / b_adapt=2 / b_bias=0 / direct=3 / weightb=1 / open_gop=0 / weightp=2 / keyint=600 / keyint_min=60 / scenecut=40 / intra_refresh=0 / rc_lookahead=50 / rc=2pass / mbtree=1 / bitrate=25000 / ratetol=1.0 / qcomp=0.80 / qpmin=0 / qpmax=69 / qpstep=4 / cplxblur=20.0 / qblur=0.5 / vbv_maxrate=50000 / vbv_bufsize=50000 / nal_hrd=none / filler=0 / ip_ratio=1.10 / aq=1:0.50
    Язык : English
    Default : Да
    Forced : Нет
    Аудио
    Идентификатор : 2
    Формат : AC-3
    Формат/Информация : Audio Coding 3
    Расширение режима : CM (complete main)
    Параметр Endianness формата : Big
    Режим смешивания : Header stripping
    Идентификатор кодека : A_AC3
    Продолжительность : 3 м. 54 с.
    Вид битрейта : Постоянный
    Битрейт : 640 Кбит/сек
    Каналы : 2 канала
    Расположение каналов : Front: L R
    Частота : 44,1 КГц
    Частота кадров : 28,711 кадров/сек (1536 spf)
    Битовая глубина : 16 бит
    Метод сжатия : С потерями
    Размер потока : 17,9 Мбайт (2%)
    Default : Да
    Forced : Нет

    Release was prepared by 60-fps.org

  2. Longevity:
    3 years
    Posts:
    63
    Gender:
    Male
    Please upload the torrent
    13-Feb-2021 05:44 (after 5 years 9 months)
  3. Longevity:
    4 years 6 months
    Posts:
    267
    Gender:
    Male
    Updated
    13-Feb-2021 15:41 (after 9 hours)
  4. Longevity:
    3 years
    Posts:
    63
    Gender:
    Male
    12314Updated
    Thank You
    14-Feb-2021 10:16 (after 18 hours)


You cannot post new topics in this forum
You cannot reply to topics in this forum
You cannot edit your posts in this forum
You cannot delete your posts in this forum
You cannot vote in polls in this forum
You cannot attach files in this forum
You cannot download files in this forum