Rammstein (БЕЗ ЦЕНЗУРЫ)| WEBRip 1080p | 60 fps Britney Spears - Oops! I Did It Again Uncut (2009) HD 1080p | 60 fps Jennifer Lopez ft. Iggy Azalea - Booty (2014) Full HD 1080p | 60 fps Britney Spears - ...Baby One More Time (2009) Full HD 1080p | 60 fps BLACKPINK | WEBRip 1080p | 60 fps Sia - Chandelier (2014 ) Full HD 1080p | 60 fps Dan Balan - Chica Bomb (2010) WEBRip 1080p | 60 fps Lady Gaga - Poker Face (2009) Full HD 1080p | 60 fps
  1. Longevity:
    6 years 1 month
    Posts:
    2418
    Gender:
    Male
    --Katy Perry - E.T. ft. Kanye West (2011) WEBRip 1080p | 60 fps --Информация о Клипе
    Исполнитель: Katy Perry
    Название: E.T. ft. Kanye West
    Год выхода: 2011
    Продолжительность: 00:05:12-Файл
    Кодек: MPEG4/ISO/AVC/ H.264
    Формат: MKV
    Качество: MasterRip 1080p
    Видео: 1920 x 1080 (16:9) at 74,925 fps 30.0 Мбит/сек
    Аудио: AC-3 at 640 Кбит/сек | 48.0 KHz | 2 channels

    MI

    Общее
    Уникальный идентификатор : 194256605957179167138400626165633805421 (0x92247620542396A09A4AACDC939C6C6D)
    Полное имя : H:\Clips\Katy Perry - E.T. (feat Kanye West).60fps.mkv
    Формат : Matroska
    Версия формата : Version 2
    Размер файла : 1,11 Гбайт
    Продолжительность : 5 м. 12 с.
    Общий поток : 30,4 Мбит/сек
    Дата кодирования : UTC 2020-12-01 20:52:44
    Программа кодирования : mkvmerge v7.8.0 ('River Man') 32bit built on Apr 3 2015 12:11:22
    Библиотека кодирования : libebml v1.3.1 + libmatroska v1.4.2
    Видео
    Идентификатор : 1
    Формат : AVC
    Формат/Информация : Advanced Video Codec
    Профиль формата : High@L4.1
    Параметр CABAC формата : Да
    Параметр ReFrames формата : 4 кадра
    Идентификатор кодека : V_MPEG4/ISO/AVC
    Продолжительность : 5 м. 12 с.
    Битрейт : 30,0 Мбит/сек
    Ширина : 1920 пикселей
    Высота : 1080 пикселей
    Соотношение сторон : 16:9
    Режим частоты кадров : Постоянный
    Частота кадров : 74,925 кадров/сек
    Цветовое пространство : YUV
    Субдискретизация насыщенности : 4:2:0
    Битовая глубина : 8 бит
    Тип развёртки : Прогрессивная
    Бит/(Пиксели*Кадры) : 0.193
    Размер потока : 1,06 Гбайт (96%)
    Библиотека кодирования : x264 core 146 r2538 121396c
    Настройки программы : cabac=1 / ref=4 / deblock=1:-1:-1 / analyse=0x3:0x113 / me=hex / subme=8 / psy=1 / psy_rd=1.00:0.15 / mixed_ref=1 / me_range=16 / chroma_me=1 / trellis=1 / 8x8dct=1 / cqm=0 / deadzone=21,11 / fast_pskip=1 / chroma_qp_offset=-3 / threads=12 / lookahead_threads=3 / sliced_threads=0 / nr=0 / decimate=1 / interlaced=0 / bluray_compat=0 / constrained_intra=0 / bframes=3 / b_pyramid=2 / b_adapt=2 / b_bias=0 / direct=3 / weightb=1 / open_gop=0 / weightp=2 / keyint=599 / keyint_min=59 / scenecut=40 / intra_refresh=0 / rc_lookahead=40 / rc=2pass / mbtree=1 / bitrate=30000 / ratetol=1.0 / qcomp=0.60 / qpmin=0 / qpmax=69 / qpstep=4 / cplxblur=20.0 / qblur=0.5 / vbv_maxrate=50000 / vbv_bufsize=50000 / nal_hrd=none / filler=0 / ip_ratio=1.40 / aq=1:1.00
    Default : Да
    Forced : Нет
    Аудио
    Идентификатор : 2
    Формат : AC-3
    Формат/Информация : Audio Coding 3
    Расширение режима : CM (complete main)
    Параметр Endianness формата : Big
    Идентификатор кодека : A_AC3
    Продолжительность : 5 м. 12 с.
    Вид битрейта : Постоянный
    Битрейт : 640 Кбит/сек
    Каналы : 2 канала
    Расположение каналов : Front: L R
    Частота : 48,0 КГц
    Частота кадров : 31,250 кадров/сек (1536 spf)
    Битовая глубина : 16 бит
    Метод сжатия : С потерями
    Размер потока : 23,9 Мбайт (2%)
    Default : Да
    Forced : Нет

    Release was prepared by 60 - fps

  2. Longevity:
    6 years 1 month
    Posts:
    310
    Gender:
    Male
    это что за разврат с ослиными булками ? :ap:
    07-Dec-2014 10:29 (after 2 minutes)
  3. Longevity:
    6 years 1 month
    Posts:
    2418
    Gender:
    Male
    ))))))))) это обложка ))))))))))))
    07-Dec-2014 10:32 (after 2 minutes)
  4. Longevity:
    5 years 9 months
    Posts:
    5
    Gender:
    Unknown
    добавьте скорости !
    07-Mar-2015 11:37 (after 3 months)
  5. Longevity:
    3 years 10 months
    Posts:
    74
    Gender:
    Male
    Торрент обновлен. Скачавших просьба обновить!!!
    Torrent updated. Downloaded please update !!!
    Today 11:37 (after 5 years 8 months)


You cannot post new topics in this forum
You cannot reply to topics in this forum
You cannot edit your posts in this forum
You cannot delete your posts in this forum
You cannot vote in polls in this forum
You cannot attach files in this forum
You cannot download files in this forum