1. Longevity:
    7 years
    Posts:
    2413
    Gender:
    Male
    -Katy Perry - Dark Horse (2014) Master | ProRes -Информация о Клипе
    Исполнитель: Katy Perry
    Название: Dark Horse
    Год выхода: 2014
    Продолжительность: 00:03:44-Описание:
    «Dark Horse» (рус. Тёмная лошадка) — песня, записанная американской певицей Кэти Перри для её четвёртого студийного альбома Prism. Звукозаписывающая компания Capitol Records выпустила песню 17 сентября 2013 года в качестве промосингла. «Dark Horse» пользовалась широким спросом среди слушателей, поэтому было принято выпустить её в качестве третьего полноценного сингла. Песня написана при участии Перри, Сары Хадсон, Juicy J, Макса Мартина, Circuit и Dr. Luke.
    «Dark Horse» сочетает в себе жанровые элементы хип-хопа, трэпа, танцевальной поп-музыки, что позволило охарактеризовать песню, как «смесь южного техно-рэпа». Композиция построена на минималистичной продукции, а вокал Перри приобрел более «зрелое» и «соблазнительное» звучание. Американский хип-хоп исполнитель Juicy J выступил также в роли приглашённого исполнителя. Согласно певице, песня должна была получить «волшебную, тёмную» окраску в стиле «чёрной магии». Перед выпуском песни Перри и компания Pepsi организовали голосование среди поклонников на выбор первого промосингла с альбома Prism. Таким образом, Dark Horse получила большее количество голосов и была выпущена первой.
    Сразу после официального выхода, Dark Horse получила восторженные отзывы критиков, которые хвалили эксперименты с урбан музыкой. Однако они разделились во мнении относительно сотрудничества с Juicy J. Песня имеет оглушительный успех на данный момент. Несмотря на то, что Dark Horse не была выпущена официальным синглом, песня участвовала в мировых чартах, заняв 1 строчку в Billboard Hot 100, 1 позицию в Canadian Hot 100 и наивысшую 2 строчку в национальном чарте Новой Зеландии. Песня стала 13-м хитом Перри, который попал в лучшую десятку чарта Billboard Hot 100 и 10-м лидером чарта Hot Digital Songs.[1] Исполнительница впервые выступила с песней на iHeartRadio Music Festival 20 сентября 2013. Музыкальное видео было выпущено 21 февраля 2014 года в 2 часа ночи по московскому времени.
    Песня стала лучшей на церемонии American Music Awards 2014.
    «Dark Horse» была номинирована на «Грэмми» в номинации Лучшее поп-исполнение дуэтом или группой, но уступила награду Кристине Агилере и A Great Big World за песню «Say Something».
    -Файл
    Кодек: APCH
    Контейнер: MOV
    Формат: ProRes
    Качество: Master
    Видео: 1920 x 1080 (1.778) | 23.976 | 179 Мбит/сек
    Аудио: PCM | 1536 Кбит/сек | 2 канала, 48.0 КГц

    MI

    Формат : MPEG-4
    Профиль формата : QuickTime
    Идентификатор кодека : qt
    Размер файла : 4,74 Гбайт
    Продолжительность : 3 м. 44 с.
    Режим общего битрейта : Переменный
    Общий поток : 181 Мбит/сек
    Дата кодирования : UTC 2014-02-26 03:30:33
    Дата пометки : UTC 2014-02-28 23:17:18
    Библиотека кодирования : Apple QuickTime
    com.apple.quicktime.player.movie.audio.g : 7.6.9 (Dev)
    com.apple.quicktime.player.movie.audio.t : 7.6.9 (1680.9)
    com.apple.quicktime.player.movie.visual. : (Binary)
    Видео
    Идентификатор : 2
    Формат : ProRes
    Версия формата : Version 0
    Профиль формата : High
    Идентификатор кодека : apch
    Продолжительность : 3 м. 44 с.
    Вид битрейта : Переменный
    Битрейт : 179 Мбит/сек
    Ширина : 1920 пикселей
    Высота : 1080 пикселей
    Соотношение сторон : 16:9
    Режим частоты кадров : Постоянный
    Частота кадров : 23,976 кадра/сек
    Цветовое пространство : YUV
    Субдискретизация насыщенности : 4:2:2
    Тип развёртки : Прогрессивная
    Бит/(Пиксели*Кадры) : 3.610
    Размер потока : 4,70 Гбайт (99%)
    Библиотека кодирования : Apple
    Язык : English
    Дата кодирования : UTC 2014-02-26 03:30:33
    Дата пометки : UTC 2014-02-26 03:31:36
    Коэффициенты матрицы : BT.709
    Аудио
    Идентификатор : 1
    Формат : PCM
    Параметр Endianness формата : Big
    Параметр Sign формата : Signed
    Идентификатор кодека : twos
    Продолжительность : 3 м. 44 с.
    Вид битрейта : Постоянный
    Битрейт : 1536 Кбит/сек
    Каналы : 2 канала
    Расположение каналов : Front: L R
    Частота : 48,0 КГц
    Битовая глубина : 16 бит
    Размер потока : 41,2 Мбайт (1%)
    Язык : English
    Дата кодирования : UTC 2014-02-26 03:30:33
    Дата пометки : UTC 2014-02-28 23:17:18
    Текст #1
    Идентификатор : 3-CC1
    Формат : EIA-608
    Режим смешивания : Final Cut / CDP
    Идентификатор кодека : c708
    Продолжительность : 3 м. 44 с.
    Вид битрейта : Постоянный
    Частота кадров : 23,976 кадра/сек
    Размер потока : 0,00 байт (0%)
    Язык : English
    Дата кодирования : UTC 2014-02-26 03:30:33
    Дата пометки : UTC 2014-02-26 03:31:36
    Текст #2
    Идентификатор : 3-1
    Формат : EIA-708
    Режим смешивания : Final Cut / CDP
    Идентификатор кодека : c708
    Продолжительность : 3 м. 44 с.
    Вид битрейта : Постоянный
    Частота кадров : 23,976 кадра/сек
    Размер потока : 0,00 байт (0%)
    Язык : English
    Дата кодирования : UTC 2014-02-26 03:30:33
    Дата пометки : UTC 2014-02-26 03:31:36

    Release was prepared by 60-fps.org

  2. Longevity:
    5 years 11 months
    Posts:
    15
    Gender:
    Male
    Оу оу оу. По легче. Ну ты дядь конечно даёшь, 149мбит/сек. Овации Бомба
    05-Jul-2017 21:27 (after 11 hours)
  3. Longevity:
    7 years
    Posts:
    2413
    Gender:
    Male
    8088Оу оу оу. По легче. Ну ты дядь конечно даёшь, 149мбит/сек. Овации Бомба
    будут клипы с битрейтом за 200 )))
    05-Jul-2017 21:28 (after 41 second)
  4. Longevity:
    4 years 10 months
    Posts:
    24
    Gender:
    Male
    Жесть, комп то потянет такой видео битрейт? без видео карты наверно врятли, встроенное видео ядро врят ли вытянет. если только ради эксперемента скачать проверить Сомневаюсь
    06-Jul-2017 13:52 (after 16 hours)


You cannot post new topics in this forum
You cannot reply to topics in this forum
You cannot edit your posts in this forum
You cannot delete your posts in this forum
You cannot vote in polls in this forum
You cannot attach files in this forum
You cannot download files in this forum