[Цитировать]
Kryl

-Katy Perry - Dark Horse (2014) Full HD 1080p | 60 fps -Информация о Клипе
Исполнитель: Katy Perry
Название: Dark Horse
Год выхода: 2014
Продолжительность: 00:03:44-Описание:
«Dark Horse» (рус. Тёмная лошадка) — песня, записанная американской певицей Кэти Перри для её четвёртого студийного альбома Prism. Звукозаписывающая компания Capitol Records выпустила песню 17 сентября 2013 года в качестве промосингла. «Dark Horse» пользовалась широким спросом среди слушателей, поэтому было принято выпустить её в качестве третьего полноценного сингла. Песня написана при участии Перри, Сары Хадсон, Juicy J, Макса Мартина, Circuit и Dr. Luke.
«Dark Horse» сочетает в себе жанровые элементы хип-хопа, трэпа, танцевальной поп-музыки, что позволило охарактеризовать песню, как «смесь южного техно-рэпа». Композиция построена на минималистичной продукции, а вокал Перри приобрел более «зрелое» и «соблазнительное» звучание. Американский хип-хоп исполнитель Juicy J выступил также в роли приглашённого исполнителя. Согласно певице, песня должна была получить «волшебную, тёмную» окраску в стиле «чёрной магии». Перед выпуском песни Перри и компания Pepsi организовали голосование среди поклонников на выбор первого промосингла с альбома Prism. Таким образом, Dark Horse получила большее количество голосов и была выпущена первой.
Сразу после официального выхода, Dark Horse получила восторженные отзывы критиков, которые хвалили эксперименты с урбан музыкой. Однако они разделились во мнении относительно сотрудничества с Juicy J. Песня имеет оглушительный успех на данный момент. Несмотря на то, что Dark Horse не была выпущена официальным синглом, песня участвовала в мировых чартах, заняв 1 строчку в Billboard Hot 100, 1 позицию в Canadian Hot 100 и наивысшую 2 строчку в национальном чарте Новой Зеландии. Песня стала 13-м хитом Перри, который попал в лучшую десятку чарта Billboard Hot 100 и 10-м лидером чарта Hot Digital Songs.[1] Исполнительница впервые выступила с песней на iHeartRadio Music Festival 20 сентября 2013. Музыкальное видео было выпущено 21 февраля 2014 года в 2 часа ночи по московскому времени.
Песня стала лучшей на церемонии American Music Awards 2014.
«Dark Horse» была номинирована на «Грэмми» в номинации Лучшее поп-исполнение дуэтом или группой, но уступила награду Кристине Агилере и A Great Big World за песню «Say Something».
-Файл
Кодек: MPEG4/ISO/AVC
Контейнер: MKV
Качество: Full HD 1080p | 60 fps
Видео: 1920 x 1080 (1.778) | 59.940 fps | 30 Мбит/сек
Аудио: DTS | 1413 Кбит/сек | 2.0 канала, 48.0 КГц

MI

Видео
Идентификатор : 1
Формат : AVC
Формат/Информация : Advanced Video Codec
Профиль формата : High@L4.1
Параметр CABAC формата : Да
Параметр ReFrames формата : 4 кадра
Идентификатор кодека : V_MPEG4/ISO/AVC
Продолжительность : 3 м. 45 с.
Битрейт : 30,0 Мбит/сек
Ширина : 1920 пикселей
Высота : 1080 пикселей
Соотношение сторон : 16:9
Режим частоты кадров : Постоянный
Частота кадров : 59,880 кадров/сек
Частота кадров в оригинале : 59,940 кадров/сек
Цветовое пространство : YUV
Субдискретизация насыщенности : 4:2:0
Битовая глубина : 8 бит
Тип развёртки : Прогрессивная
Бит/(Пиксели*Кадры) : 0.242
Размер потока : 789 Мбайт (94%)
Заголовок : www.60-fps.org
Библиотека кодирования : x264 core 148 r2744 b97ae06
Настройки программы : cabac=1 / ref=4 / deblock=1:-3:-3 / analyse=0x3:0x113 / me=umh / subme=8 / psy=1 / psy_rd=1.00:0.25 / mixed_ref=1 / me_range=32 / chroma_me=1 / trellis=1 / 8x8dct=1 / cqm=0 / deadzone=6,6 / fast_pskip=1 / chroma_qp_offset=-4 / threads=12 / lookahead_threads=2 / sliced_threads=0 / nr=0 / decimate=0 / interlaced=0 / bluray_compat=0 / constrained_intra=0 / bframes=3 / b_pyramid=2 / b_adapt=1 / b_bias=0 / direct=3 / weightb=1 / open_gop=0 / weightp=2 / keyint=599 / keyint_min=59 / scenecut=40 / intra_refresh=0 / rc_lookahead=50 / rc=2pass / mbtree=1 / bitrate=29999 / ratetol=1.0 / qcomp=0.80 / qpmin=0 / qpmax=69 / qpstep=4 / cplxblur=20.0 / qblur=0.5 / vbv_maxrate=62500 / vbv_bufsize=78125 / nal_hrd=none / filler=0 / ip_ratio=1.10 / aq=1:0.50
Default : Да
Forced : Нет
Аудио
Идентификатор : 2
Формат : DTS
Формат/Информация : Digital Theater Systems
Режим : 16
Параметр Endianness формата : Big
Идентификатор кодека : A_DTS
Продолжительность : 3 м. 45 с.
Вид битрейта : Постоянный
Битрейт : 1413 Кбит/сек
Каналы : 2 канала
Расположение каналов : Front: L R
Частота : 48,0 КГц
Битовая глубина : 16 бит
Метод сжатия : С потерями
Задержка видео : 83 мс.
Размер потока : 37,9 Мбайт (4%)
Язык : English
Default : Да
Forced : Нет
DURATION : 00:03:44.982000000
NUMBER_OF_FRAMES : 21092
NUMBER_OF_BYTES : 39737328
_STATISTICS_WRITING_APP : mkvmerge v7.6.0 ('Garden of Dreams') 32bit built on Feb 8 2015 12:51:39
_STATISTICS_WRITING_DATE_UTC : 2017-07-08 18:46:36
_STATISTICS_TAGS : BPS DURATION NUMBER_OF_FRAMES NUMBER_OF_BYTES

Релиз подготовлен 60 - fps

[Цитировать]
Edik

И причём тут лошадь?

[Цитировать]
Kryl

8424И причём тут лошадь?
ну это как бы перевод )))
а такие вопросы надо адресовать наверное исполнителю Katy Perry Улыбаюсь , в twitter ей напишите
Смеюсь Смеюсь Смеюсь
 
Показать сообщения:    

Текущее время: 23-Сен 01:21

Часовой пояс: UTC + 3


Вы не можете начинать темы
Вы не можете отвечать на сообщения
Вы не можете редактировать свои сообщения
Вы не можете удалять свои сообщения
Вы не можете голосовать в опросах
Вы не можете прикреплять файлы к сообщениям
Вы не можете скачивать файлы