1. Longevity:
    7 years
    Posts:
    2413
    Gender:
    Male
    -Katy Perry - Birthday (2014) Master | ProRes --Информация о Клипе
    Исполнитель: Katy Perry
    Название: Birthday
    Год выхода: 2014
    Продолжительность: 00:03:37-Описание:
    Официальный видеоклип «Birthday» был срежиссирован Марком Класфелдом и Дэнни Локвудом; Николь Акасио помогала как исполнительный продюсер, Доун Роуз продюсировала съёмки, а Джозеф Роббинс был оператором-постановщиком. В видео, снятом в апреле 2014 г., Перри сыграла пять персонажей-ведущих мероприятий, появившись на пяти празднованиях. Это были как бы пожилая исполнительница бурлеска Голди, еврейский церемониймейстер Иозеф Шулем, клоун Крис, дрессировщик Эйс, и художник по лицам Принцесса Мэнди. Для превращения в каждого персонажа Перри тратила до семи часов, получая накладываемый Тони Гарднером пластический грим.
    Празднования, которые посетила Перри, были реальные, и их участники не подозревали, что Перри там находится. Организаторы мероприятий считали, что они подписались на главные роли в реалити-шоу «Birthday Blowouts» («Фонтан Дней Рождений»). Соответственно, большинство произошедших во время съёмок событий ставились без ведома организаторов и гостей празднований. Например, тайно организованная автоавария, которая произошла в клипе, оставила несколько видевших это детей испугавшимися и плачущими. Перри признаёт видео «очень сложным, чтобы сделать и снять» и её «самым безумным», к тому моменту. Видео-тизер, представляющий персонажей, был выпущен 22 апреля 2014, а законченный видеоклип был показан двумя днями позже. Пиковая позиция сингла в Billboard Hot 100 - #17
    -Файл
    Кодек: APCH
    Контейнер: MOV
    Формат: ProRes
    Качество: Master
    Видео: 1888 x 1062 (1.778) | 23.976 | 179 Мбит/сек
    Аудио: PCM | 1536 Кбит/сек | 2 канала, 48.0 КГц

    MI

    Формат : MPEG-4
    Профиль формата : QuickTime
    Идентификатор кодека : qt
    Размер файла : 4,56 Гбайт
    Продолжительность : 3 м. 37 с.
    Режим общего битрейта : Переменный
    Общий поток : 181 Мбит/сек
    Дата кодирования : UTC 2014-04-07 20:13:26
    Дата пометки : UTC 2014-04-07 20:14:45
    Библиотека кодирования : Apple QuickTime
    Media/UUID : 621DADCA-8156-44E9-8231-0C61429C0C20
    Видео
    Идентификатор : 1
    Формат : ProRes
    Версия формата : Version 0
    Профиль формата : High
    Идентификатор кодека : apch
    Продолжительность : 3 м. 37 с.
    Вид битрейта : Переменный
    Битрейт : 179 Мбит/сек
    Ширина : 1888 пикселей
    Ширина оригинала : 1920 пикселей
    Высота : 1062 пикселя
    Высота оригинала : 1080 пикселей
    Соотношение сторон : 16:9
    Режим частоты кадров : Постоянный
    Частота кадров : 23,976 кадра/сек
    Цветовое пространство : YUV
    Субдискретизация насыщенности : 4:2:2
    Тип развёртки : Прогрессивная
    Бит/(Пиксели*Кадры) : 3.723
    Размер потока : 4,52 Гбайт (99%)
    Библиотека кодирования : Apple
    Язык : English
    Дата кодирования : UTC 2014-04-07 20:13:26
    Дата пометки : UTC 2014-04-07 20:14:45
    Основные цвета : BT.709
    Характеристики трансфера : BT.709
    Коэффициенты матрицы : BT.709
    Аудио
    Идентификатор : 2
    Формат : PCM
    Параметр Endianness формата : Little
    Параметр Sign формата : Signed
    Идентификатор кодека : sowt
    Продолжительность : 3 м. 37 с.
    Вид битрейта : Постоянный
    Битрейт : 1536 Кбит/сек
    Каналы : 2 канала
    Расположение каналов : Front: L R
    Частота : 48,0 КГц
    Битовая глубина : 16 бит
    Размер потока : 39,7 Мбайт (1%)
    Язык : English
    Дата кодирования : UTC 2014-04-07 20:13:26
    Дата пометки : UTC 2014-04-07 20:14:45
    Прочее
    Идентификатор : 3
    Тип : Time code
    Формат : QuickTime TC
    Продолжительность : 3 м. 37 с.
    Временной код первого кадра : 01:00:00:00
    TimeCode_Striped/String : Да
    Язык : English
    Дата кодирования : UTC 2014-04-07 20:14:45
    Дата пометки : UTC 2014-04-07 20:14:45

    Release was prepared by 60-fps.org

  2. Longevity:
    4 years 10 months
    Posts:
    5
    Gender:
    Unknown
    seed it please
    03-Aug-2017 19:54 (after 29 days)
  3. Longevity:
    4 years 10 months
    Posts:
    5
    Gender:
    Unknown
    dude I dont download it compeletly
    05-Aug-2017 11:58 (after 1 day 16 hours)


You cannot post new topics in this forum
You cannot reply to topics in this forum
You cannot edit your posts in this forum
You cannot delete your posts in this forum
You cannot vote in polls in this forum
You cannot attach files in this forum
You cannot download files in this forum