[Цитировать]
BOT2

Каратель (1989)

-Название: Каратель
Оригинальное название: The Punisher
Год выпуска: 1989
Страна: Австралия, США
Жанр: боевик, триллер, драма, криминал
Продолжительность: 01:29:05
Перевод: Профессиональный многоголосый
Субтитры: русские (Полные), английские (Полные)-Режиссер: Марк Голдблатт / Mark Goldblatt-В ролях: Дольф Лундгрен (Frank Castle), Луис Госсет мл. (Jake Berkowitz), Ерун Краббе (Gianni Franco), Ким Мийори (Lady Tanaka), Брайан Маршалл (Dino Moretti), Нэнси Эверхард (Sam Leary), Бэрри Отто (Shake), Брайан Руни (Tommy Franco), Зошка Мизак (Tanaka's Daughter), Кэндзи Ямаки (Sato), Хирофуми Канаяма (Tomio), Ларри МакКормик (TV Newsreader)-Описание:
Полицейский Фрэнк Кастл с трудом пережил гибель семьи, его жена и дочь сгорели живьем во взорванном автомобиле. Теперь он стал судьей и палачом 125 гангстеров, которых он разыскал и приговорил к смерти. Его невозможно остановить. Но у него слишком много врагов...-Рейтинг
-Качество: BDRip-AVC 60fps
Формат: MKV
Видео кодек: AVC
Аудио кодек:AC3
Видео: AVC, 1024x552 (1.855), 5100 kbps, 59,940 fps, 0,151 bpp
Аудио: русский / AC3 / 2.0 / 48 kHz / 384 kbps / 16 bit |Многоголосый, закадровый Viking Video|
Навигация по главам: есть- -

MI

General
Unique ID : 249311854024616182962195529632818312424 (0xBB8FB76D922D0840AD34DF9A36BAB4E8)
Complete name : A:\Фильмы\Каратель BDRip-AVC 60fp R.G. HD-FIlms\Каратель (1989).mkv
Format : Matroska
Format version : Version 4 / Version 2
File size : 3.41 GiB
Duration : 1h 29mn
Overall bit rate : 5 482 Kbps
Movie name : Tiberiumsun69
Encoded date : UTC 2015-07-03 23:58:42
Writing application : mkvmerge v7.9.0 ('Birds') 64bit
Writing library : libebml v1.3.1 + libmatroska v1.4.2
Attachment : Yes
Video
ID : 1
Format : AVC
Format/Info : Advanced Video Codec
Format profile : High@L4.1
Format settings, CABAC : Yes
Format settings, ReFrames : 4 frames
Codec ID : V_MPEG4/ISO/AVC
Duration : 1h 29mn
Bit rate : 5 100 Kbps
Width : 1 024 pixels
Height : 552 pixels
Display aspect ratio : 1.855
Frame rate : 59.940 fps
Color space : YUV
Chroma subsampling : 4:2:0
Bit depth : 8 bits
Scan type : Progressive
Bits/(Pixel*Frame) : 0.151
Stream size : 3.10 GiB (91%)
Title : Tiberiumsun69
Writing library : x264 core 146 r2538 121396c
Encoding settings : cabac=1 / ref=4 / deblock=1:0:0 / analyse=0x3:0x113 / me=umh / subme=9 / psy=1 / psy_rd=1.00:0.10 / mixed_ref=1 / me_range=32 / chroma_me=1 / trellis=2 / 8x8dct=1 / cqm=0 / deadzone=21,11 / fast_pskip=0 / chroma_qp_offset=-3 / threads=12 / lookahead_threads=3 / sliced_threads=0 / nr=0 / decimate=1 / interlaced=0 / bluray_compat=0 / constrained_intra=0 / bframes=16 / b_pyramid=2 / b_adapt=2 / b_bias=0 / direct=3 / weightb=1 / open_gop=0 / weightp=2 / keyint=600 / keyint_min=59 / scenecut=40 / intra_refresh=0 / rc_lookahead=60 / rc=2pass / mbtree=1 / bitrate=5100 / ratetol=1.0 / qcomp=0.60 / qpmin=0 / qpmax=69 / qpstep=4 / cplxblur=20.0 / qblur=0.5 / vbv_maxrate=50000 / vbv_bufsize=62500 / nal_hrd=none / filler=0 / ip_ratio=1.40 / aq=1:1.00
Language : English
Default : Yes
Forced : No
Audio
ID : 2
Format : AC-3
Format/Info : Audio Coding 3
Mode extension : CM (complete main)
Codec ID : A_AC3
Duration : 1h 29mn
Bit rate mode : Constant
Bit rate : 384 Kbps
Channel(s) : 2 channels
Channel positions : Front: L R
Sampling rate : 48.0 KHz
Bit depth : 16 bits
Compression mode : Lossy
Stream size : 245 MiB (7%)
Title : Многоголосый, закадровый Viking Video
Language : Russian
Default : No
Forced : No
Text #1
ID : 3
Format : UTF-8
Codec ID : S_TEXT/UTF8
Codec ID/Info : UTF-8 Plain Text
Title : Полные
Language : Russian
Default : No
Forced : No
Text #2
ID : 4
Format : UTF-8
Codec ID : S_TEXT/UTF8
Codec ID/Info : UTF-8 Plain Text
Title : Полные
Language : English
Default : No
Forced : No
Menu
00:00:00.000 : :Chapter 01
00:07:33.453 : :Chapter 02
00:15:58.832 : :Chapter 03
00:21:38.755 : :Chapter 04
00:29:20.759 : :Chapter 05
00:37:31.332 : :Chapter 06
00:43:20.514 : :Chapter 07
00:50:53.467 : :Chapter 08
00:58:21.915 : :Chapter 09
01:07:28.461 : :Chapter 10
01:14:21.039 : :Chapter 11
01:21:31.052 : :Chapter 12

Скриншоты

Каратель (2004)

-Название: Каратель
Оригинальное название: The Punisher
Год выпуска: 2004
Страна: США, Германия
Жанр: боевик, триллер, драма, криминал
Продолжительность: 02:03:30
Перевод: Дубляж
Субтитры: русские (Полные), английские (Полные)-Режиссер: Джонатан Хенсли / Jonathan Hensleigh-В ролях: Томас Джейн (Frank Castle), Джон Траволта (Howard Saint), Уилл Пэттон (Quentin Glass), Рой Шайдер (Frank Castle Sr.), Лаура Хэрринг (Livia Saint), Бен Фостер (Spacker Dave), Ребекка Ромейн (Joan), А. Расселл Эндрюс (Jimmy Weeks), Омар Авила (Joe Toro), Джеймс Карпинелло (Bobby Saint / John Saint), Марк Колли (Harry Heck), Расселл Дархэм Комегис (Tattooed Mike)-Описание:
Фрэнк Касл - агент ФБР под прикрытием, который после долгих лет службы оперативником должен наконец-то получить кабинетную должность и начать спокойную жизнь со своей женой и детьми. Однако ему предстоит пережить страшное потрясение - во время выполнения последнего спецзадания прямо на его глазах от рук преступника погибает вся его семья. Несмотря на душевную боль, Фрэнк с невероятной решимостью, жестокостью и бесстрашием ищет и карает убийц. Он ведет войну против тех, кто лишил его самого дорогого в жизни. Это - настоящее возмездие...-Рейтинг
-Качество: BDRip-AVC 60fps
Формат: MKV
Видео кодек: AVC
Аудио кодек:AC3
Видео: AVC, 1024x432 (2.35:1), 3950 kbps, 59,940 fps, 0,149 bpp
Аудио: русский / AC3 / 5.1 / 48 kHz / 640 kbps / 16 bit |Дубляж|
Навигация по главам: есть- -

MI

General
Unique ID : 223967282548957575472071252515794961483 (0xA87E879405FBC0B4A3BE6AE8C40FC44B)
Complete name : A:\Фильмы\Каратель BDRip-AVC 60fp R.G. HD-FIlms\Каратель (2004).mkv
Format : Matroska
Format version : Version 4 / Version 2
File size : 3.96 GiB
Duration : 2h 3mn
Overall bit rate : 4 593 Kbps
Movie name : Tiberiumsun69
Encoded date : UTC 2015-07-04 00:20:01
Writing application : mkvmerge v7.9.0 ('Birds') 64bit
Writing library : libebml v1.3.1 + libmatroska v1.4.2
Attachment : Yes / Yes
Video
ID : 1
Format : AVC
Format/Info : Advanced Video Codec
Format profile : High@L4.1
Format settings, CABAC : Yes
Format settings, ReFrames : 4 frames
Codec ID : V_MPEG4/ISO/AVC
Duration : 2h 3mn
Bit rate : 3 950 Kbps
Width : 1 024 pixels
Height : 432 pixels
Display aspect ratio : 2.35:1
Frame rate : 59.940 fps
Color space : YUV
Chroma subsampling : 4:2:0
Bit depth : 8 bits
Scan type : Progressive
Bits/(Pixel*Frame) : 0.149
Stream size : 3.33 GiB (84%)
Title : Tiberiumsun69
Writing library : x264 core 146 r2538 121396c
Encoding settings : cabac=1 / ref=4 / deblock=1:0:0 / analyse=0x3:0x113 / me=umh / subme=9 / psy=1 / psy_rd=1.00:0.10 / mixed_ref=1 / me_range=32 / chroma_me=1 / trellis=2 / 8x8dct=1 / cqm=0 / deadzone=21,11 / fast_pskip=0 / chroma_qp_offset=-3 / threads=12 / lookahead_threads=3 / sliced_threads=0 / nr=0 / decimate=1 / interlaced=0 / bluray_compat=0 / constrained_intra=0 / bframes=16 / b_pyramid=2 / b_adapt=2 / b_bias=0 / direct=3 / weightb=1 / open_gop=0 / weightp=2 / keyint=600 / keyint_min=59 / scenecut=40 / intra_refresh=0 / rc_lookahead=60 / rc=2pass / mbtree=1 / bitrate=3950 / ratetol=1.0 / qcomp=0.60 / qpmin=0 / qpmax=69 / qpstep=4 / cplxblur=20.0 / qblur=0.5 / vbv_maxrate=50000 / vbv_bufsize=62500 / nal_hrd=none / filler=0 / ip_ratio=1.40 / aq=1:1.00
Language : English
Default : Yes
Forced : No
Audio
ID : 2
Format : AC-3
Format/Info : Audio Coding 3
Mode extension : CM (complete main)
Codec ID : A_AC3
Duration : 2h 3mn
Bit rate mode : Constant
Bit rate : 640 Kbps
Channel(s) : 6 channels
Channel positions : Front: L C R, Side: L R, LFE
Sampling rate : 48.0 KHz
Bit depth : 16 bits
Compression mode : Lossy
Stream size : 565 MiB (14%)
Title : Дубляж
Language : Russian
Default : Yes
Forced : No
Text #1
ID : 3
Format : UTF-8
Codec ID : S_TEXT/UTF8
Codec ID/Info : UTF-8 Plain Text
Title : Полные
Language : Russian
Default : No
Forced : No
Text #2
ID : 4
Format : UTF-8
Codec ID : S_TEXT/UTF8
Codec ID/Info : UTF-8 Plain Text
Title : Полные
Language : English
Default : No
Forced : No
Menu
00:00:00.000 : en:00:00:00.000
00:07:06.926 : en:00:07:06.926
00:14:57.438 : en:00:14:57.438
00:22:23.926 : en:00:22:23.926
00:31:55.330 : en:00:31:55.330
00:38:29.557 : en:00:38:29.557
00:46:16.273 : en:00:46:16.273
00:54:10.873 : en:00:54:10.873
01:01:19.676 : en:01:01:19.676
01:08:20.305 : en:01:08:20.305
01:15:16.220 : en:01:15:16.220
01:22:47.379 : en:01:22:47.379
01:35:01.487 : en:01:35:01.487
01:40:39.367 : en:01:40:39.367
01:48:43.726 : en:01:48:43.726
01:55:42.936 : en:01:55:42.936

Скриншоты

Каратель: Территория войны (2008)

-Название: Каратель: Территория войны
Оригинальное название: Punisher: War Zone
Год выпуска: 2008
Страна: США, Канада, Германия
Жанр: боевик, триллер, драма, криминал
Продолжительность: 01:42:42
Перевод: Профессиональный многоголосый
Субтитры: русские (Форсированные), русские (Полные), английские (Полные)-Режиссер: Лекси Александр / Lexi Alexander-В ролях: Рэй Стивенсон (Frank Castle), Доминик Уэст (Billy / Jigsaw), Даг Хатчисон (Loony Bin Jim), Колин Сэлмон (Paul Budiansky), Уэйн Найт (Micro), Дэш Майок (Martin Soap), Джули Бенц (Angela), Стефани Янушаускас (Grace), Марк Камачо (Pittsy), Романо Орцари (Nicky), Керам Малики-Санчес (Ink), Ларри Дэй (Agent Miller)-Описание:
Жесткий, брутальный и беспощадный вершитель порядка Фрэнк Кастл по прозвищу Каратель ведет настоящую войну с миром организованной преступности. Он не знает жалости и компромиссов и собственными руками отправляет плохих парней в ад, либо за железную решетку. Его методы продиктованы местью, а действия жаждой справедливости. На этот раз он схлестнется со своим главным противником, мега-маньяком - Джигсо, восседающим на криминальном троне Нью-Йорка и управляющим целой армией психопатов и головорезов. С другой стороны ФБР создает свой отряд, призванный пресечь сверхмощную атаку Карателя. Зона военных действий определена! Но это только начало!-Рейтинг
-Качество: BDRip-AVC 60fps
Формат: MKV
Видео кодек: AVC
Аудио кодек:AC3
Видео: AVC, 1024x424 (2.40:1), 3950 kbps, 59,940 fps, 0,152 bpp
Аудио: русский / AC3 / 5.1 / 48 kHz / 640 kbps / 16 bit |Многоголосый, закадровый R5|
Навигация по главам: есть- -

MI

General
Unique ID : 211552130175650415657048693683502888746 (0x9F27754E96B85C699A8FCB2C0B02B72A)
Complete name : A:\Фильмы\Каратель BDRip-AVC 60fp R.G. HD-FIlms\Каратель (2008).mkv
Format : Matroska
Format version : Version 4 / Version 2
File size : 3.29 GiB
Duration : 1h 42mn
Overall bit rate : 4 592 Kbps
Movie name : Tiberiumsun69
Encoded date : UTC 2015-07-04 06:40:09
Writing application : mkvmerge v7.9.0 ('Birds') 64bit
Writing library : libebml v1.3.1 + libmatroska v1.4.2
Attachment : Yes
Video
ID : 1
Format : AVC
Format/Info : Advanced Video Codec
Format profile : High@L4.1
Format settings, CABAC : Yes
Format settings, ReFrames : 4 frames
Codec ID : V_MPEG4/ISO/AVC
Duration : 1h 42mn
Bit rate : 3 950 Kbps
Width : 1 024 pixels
Height : 424 pixels
Display aspect ratio : 2.40:1
Frame rate : 59.940 fps
Color space : YUV
Chroma subsampling : 4:2:0
Bit depth : 8 bits
Scan type : Progressive
Bits/(Pixel*Frame) : 0.152
Stream size : 2.77 GiB (84%)
Title : Tiberiumsun69
Writing library : x264 core 146 r2538 121396c
Encoding settings : cabac=1 / ref=4 / deblock=1:0:0 / analyse=0x3:0x113 / me=umh / subme=9 / psy=1 / psy_rd=1.00:0.10 / mixed_ref=1 / me_range=32 / chroma_me=1 / trellis=2 / 8x8dct=1 / cqm=0 / deadzone=21,11 / fast_pskip=0 / chroma_qp_offset=-3 / threads=12 / lookahead_threads=3 / sliced_threads=0 / nr=0 / decimate=1 / interlaced=0 / bluray_compat=0 / constrained_intra=0 / bframes=16 / b_pyramid=2 / b_adapt=2 / b_bias=0 / direct=3 / weightb=1 / open_gop=0 / weightp=2 / keyint=600 / keyint_min=59 / scenecut=40 / intra_refresh=0 / rc_lookahead=60 / rc=2pass / mbtree=1 / bitrate=3950 / ratetol=1.0 / qcomp=0.60 / qpmin=0 / qpmax=69 / qpstep=4 / cplxblur=20.0 / qblur=0.5 / vbv_maxrate=50000 / vbv_bufsize=62500 / nal_hrd=none / filler=0 / ip_ratio=1.40 / aq=1:1.00
Language : English
Default : Yes
Forced : No
Audio
ID : 2
Format : AC-3
Format/Info : Audio Coding 3
Mode extension : CM (complete main)
Codec ID : A_AC3
Duration : 1h 42mn
Bit rate mode : Constant
Bit rate : 640 Kbps
Channel(s) : 6 channels
Channel positions : Front: L C R, Side: L R, LFE
Sampling rate : 48.0 KHz
Bit depth : 16 bits
Compression mode : Lossy
Stream size : 470 MiB (14%)
Title : Многоголосый, закадровый R5
Language : Russian
Default : Yes
Forced : No
Text #1
ID : 3
Format : UTF-8
Codec ID : S_TEXT/UTF8
Codec ID/Info : UTF-8 Plain Text
Title : Форсированные
Language : Russian
Default : Yes
Forced : No
Text #2
ID : 4
Format : UTF-8
Codec ID : S_TEXT/UTF8
Codec ID/Info : UTF-8 Plain Text
Title : Полные
Language : Russian
Default : No
Forced : No
Text #3
ID : 5
Format : UTF-8
Codec ID : S_TEXT/UTF8
Codec ID/Info : UTF-8 Plain Text
Title : Полные
Language : English
Default : No
Forced : No
Menu
00:00:00.000 : en:Chapter 1
00:05:00.000 : en:Chapter 2
00:10:00.000 : en:Chapter 3
00:15:00.000 : en:Chapter 4
00:20:00.000 : en:Chapter 5
00:25:00.000 : en:Chapter 6
00:30:00.000 : en:Chapter 7
00:35:00.000 : en:Chapter 8
00:40:00.000 : en:Chapter 9
00:45:00.000 : en:Chapter 10
00:50:00.000 : en:Chapter 11
00:55:00.000 : en:Chapter 12
01:00:00.000 : en:Chapter 13
01:05:00.000 : en:Chapter 14
01:10:00.000 : en:Chapter 15
01:15:00.000 : en:Chapter 16
01:20:00.000 : en:Chapter 17
01:25:00.000 : en:Chapter 18
01:30:00.000 : en:Chapter 19
01:35:00.000 : en:Chapter 20
01:40:00.000 : en:Chapter 21

Скриншоты

[60-fps.org].t841.torrent
Торрент: Зарегистрирован [ 2015-07-04 16:04 ] · 6883FFF9AE94B9A2D3ED4656E3A7DD7727159CAA

Скачать .torrent

Скачать

27 KB

Статус: проверено
Скачан: 35 раз
Поблагодарили:
Размер: 10,67 GB
 
 
Показать сообщения:    

Текущее время: 23-Фев 12:25

Часовой пояс: UTC + 3


Вы не можете начинать темы
Вы не можете отвечать на сообщения
Вы не можете редактировать свои сообщения
Вы не можете удалять свои сообщения
Вы не можете голосовать в опросах
Вы не можете прикреплять файлы к сообщениям
Вы можете скачивать файлы