[Цитировать]
Kryl

«Волшебство не стареет»- Информация
Название: Капитан Крюк
Оригинальное название: Hook
Год выхода: 1991
Жанр: Фэнтези, комедия, приключения, семейный
Режиссер: Стивен Спилберг
Сценарий: Дж. М. Барри, Джеймс В. Харт, Малия Скотч Мармо
Продюсер: Кэтлин Кеннеди, Фрэнк Маршалл, Джералд Р. Молен
В ролях: Дастин Хоффман, Робин Уильямс, Джулия Робертс, Боб Хоскинс, Мэгги Смит, Кэролайн Гудолл, Чарли Корсмо, Эмбер Скотт, Лорел Кронин, Фил Коллинз, Артур Мэлет, Айзиа Робинсон
--Сюжет:
Питер Пэн стал взрослым и перестал быть Питером Пэном. Теперь ему сорок лет, у него другое имя, семья и серьезная работа. Не осталось и следа от чудесного ребенка, который когда-то умел летать… Но старые враги не забыли мальчика.
Капитан с острым стальным крюком вместо руки снова бросает вызов своему противнику, похитив его детей. Питер отправляется вслед за ним в волшебную страну, но чтобы победить там, где живут русалки, феи и однорукие пираты, ему придется снова научиться летать.
- - Страна: США
Продолжительность: 02:21:45
-- Файл
Кодек: MPEG4/ISO/AVC H.264
Формат: MKV
Качество: BDRip 720p 60fps
Видео: 1280 x 534 (2.397) | 59.940 fps | 9.6 Мбит/сек
Аудио 1: AC3 | 5.1 | 48 kHz | 384 kbps | 16 bit | R5 |
Аудио 2: AC3 | 5.1 | 48 kHz | 448 kbps | 16 bit | Супербит |
Аудио 3: AC3 | 2.0 | 48 kHz | 256 kbps | 16 bit | Дублированный |
Аудио 4: AC3 | 2.0 | 48 kHz | 192 kbps | 16 bit | Владимир Сонькин |
Аудио 5: AC3 | 5.1 | 48 kHz | 384 kbps | 16 bit | ENG |
Субтитры: Русские, английские

MedifInfo

Видео
Идентификатор : 1
Формат : AVC
Формат/Информация : Advanced Video Codec
Профиль формата : High@L4.1
Параметр CABAC формата : Да
Параметр ReFrames формата : 3 кадра
Идентификатор кодека : V_MPEG4/ISO/AVC
Продолжительность : 2 ч. 21 м.
Вид битрейта : Переменный
Битрейт : 9605 Кбит/сек
Максимальный битрейт : 10000 Кбит/сек
Ширина : 1280 пикселей
Высота : 534 пикселя
Соотношение сторон : 2,40:1
Режим частоты кадров : Постоянный
Частота кадров : 59,880 кадров/сек
Частота кадров в оригинале : 59,940 кадров/сек
Стандарт вещания : PAL
Цветовое пространство : YUV
Субдискретизация насыщенности : 4:2:0
Битовая глубина : 8 бит
Тип развёртки : Прогрессивная
Бит/(Пиксели*Кадры) : 0.235
Размер потока : 9,51 Гбайт (84%)
Заголовок : www.60-fps.org
Язык : English
Default : Нет
Forced : Нет
Основные цвета : BT.601 NTSC
Характеристики трансфера : BT.601
Коэффициенты матрицы : BT.601
colour_range : Limited
Аудио #1
Идентификатор : 2
Формат : AC-3
Формат/Информация : Audio Coding 3
Расширение режима : CM (complete main)
Параметр Endianness формата : Big
Идентификатор кодека : A_AC3
Продолжительность : 2 ч. 21 м.
Вид битрейта : Постоянный
Битрейт : 384 Кбит/сек
Каналы : 6 каналов
Расположение каналов : Front: L C R, Side: L R, LFE
Частота : 48,0 КГц
Битовая глубина : 16 бит
Метод сжатия : С потерями
Размер потока : 389 Мбайт (3%)
Заголовок : R5
Язык : Russian
Default : Да
Forced : Нет
Аудио #2
Идентификатор : 3
Формат : AC-3
Формат/Информация : Audio Coding 3
Расширение режима : CM (complete main)
Параметр Endianness формата : Big
Идентификатор кодека : A_AC3
Продолжительность : 2 ч. 21 м.
Вид битрейта : Постоянный
Битрейт : 448 Кбит/сек
Каналы : 6 каналов
Расположение каналов : Front: L C R, Side: L R, LFE
Частота : 48,0 КГц
Битовая глубина : 16 бит
Метод сжатия : С потерями
Размер потока : 454 Мбайт (4%)
Заголовок : Супербит
Язык : Russian
Default : Нет
Forced : Нет
Аудио #3
Идентификатор : 4
Формат : AC-3
Формат/Информация : Audio Coding 3
Расширение режима : CM (complete main)
Параметр Endianness формата : Big
Идентификатор кодека : A_AC3
Продолжительность : 2 ч. 21 м.
Вид битрейта : Постоянный
Битрейт : 256 Кбит/сек
Каналы : 2 канала
Расположение каналов : Front: L R
Частота : 48,0 КГц
Битовая глубина : 16 бит
Метод сжатия : С потерями
Размер потока : 260 Мбайт (2%)
Заголовок : дубляж
Язык : Russian
Default : Нет
Forced : Нет
Аудио #4
Идентификатор : 5
Формат : AC-3
Формат/Информация : Audio Coding 3
Расширение режима : CM (complete main)
Параметр Endianness формата : Big
Идентификатор кодека : A_AC3
Продолжительность : 2 ч. 21 м.
Вид битрейта : Постоянный
Битрейт : 192 Кбит/сек
Каналы : 2 канала
Расположение каналов : Front: L R
Частота : 48,0 КГц
Битовая глубина : 16 бит
Метод сжатия : С потерями
Размер потока : 195 Мбайт (2%)
Заголовок : Владимира Сонькина
Язык : Russian
Default : Нет
Forced : Нет
Аудио #5
Идентификатор : 6
Формат : AC-3
Формат/Информация : Audio Coding 3
Расширение режима : CM (complete main)
Параметр Endianness формата : Big
Идентификатор кодека : A_AC3
Продолжительность : 2 ч. 21 м.
Вид битрейта : Постоянный
Битрейт : 384 Кбит/сек
Каналы : 6 каналов
Расположение каналов : Front: L C R, Side: L R, LFE
Частота : 48,0 КГц
Битовая глубина : 16 бит
Метод сжатия : С потерями
Размер потока : 389 Мбайт (3%)
Заголовок : ENG
Default : Нет
Forced : Нет
Текст #1
Идентификатор : 7
Формат : UTF-8
Идентификатор кодека : S_TEXT/UTF8
Идентификатор кодека/Информация : UTF-8 Plain Text
Язык : Russian
Default : Нет
Forced : Нет
Текст #2
Идентификатор : 8
Формат : UTF-8
Идентификатор кодека : S_TEXT/UTF8
Идентификатор кодека/Информация : UTF-8 Plain Text
Язык : English
Default : Нет
Forced : Нет
Меню
00:00:00.000 : en:00:00:00.000
00:08:05.944 : en:00:08:05.944
00:16:44.378 : en:00:16:44.378
00:23:37.625 : en:00:23:37.625
00:30:14.396 : en:00:30:14.396
00:35:50.357 : en:00:35:50.357
00:48:17.603 : en:00:48:17.603
00:58:14.199 : en:00:58:14.199
01:06:16.973 : en:01:06:16.973
01:11:26.532 : en:01:11:26.532
01:22:03.544 : en:01:22:03.544
01:31:46.000 : en:01:31:46.000
01:40:26.020 : en:01:40:26.020
01:47:53.592 : en:01:47:53.592
01:56:29.858 : en:01:56:29.858
02:08:10.057 : en:02:08:10.057

Релиз подготовлен 60 - fps



Последний раз редактировалось: Kryl (2015-10-16 18:16), всего редактировалось 3 раз(а)

[Цитировать]
Fluktuon

Фильм детства!!

[Цитировать]
alex05dag

классный фильм, обожаю))
 
Показать сообщения:    

Текущее время: 10-Дек 19:36

Часовой пояс: UTC + 3


Вы не можете начинать темы
Вы не можете отвечать на сообщения
Вы не можете редактировать свои сообщения
Вы не можете удалять свои сообщения
Вы не можете голосовать в опросах
Вы не можете прикреплять файлы к сообщениям
Вы не можете скачивать файлы