Агент Ева / Ava (2020) BDRip 1080p | 60 fps Танго и Кэш / Tango & Cash (1989) BDRemux 1080p | 60 fps Властелин колец: Трилогия / The Lord of the Rings: Trilogy (2001-2003) BDRip-AVC | Extended Cut | 60 fps Ультрафиолет / Ultraviolet (2006) BDRip 1080p | 60 fps Девушка-невидимка / Shadow Girl (2019) BDRip 720p | 60 fps Не входи / The Owners(2020) BDRip 720p | 60 fps Вивариум / Vivarium (2019) BDRip 720p | 60 fps Где-то во времени / The Fare (2018) BDRip 720p | 60 fps
  1. Longevity:
    6 years 7 months
    Posts:
    2414
    Gender:
    Male
    «Having a Wonderful Crime! Wish You Were Here!»- Информация
    Название: Как украсть миллион
    Оригинальное название: How to Steal a Million
    Год выхода: 1966
    Жанр: мелодрама, комедия, криминал
    Режиссер: Уильям Уайлер
    Сценарий: Гарри Кернитц, Джордж Брэдшоу
    Продюсер: Фред Колмар
    В ролях: Одри Хепберн, Питер О`Тул, Эли Уоллах, Хью Гриффит, Шарль Буайе, Фернан Гравей, Марсель Далио, Жак Марин, Мусташ, Роже Тревиль
    --Сюжет:
    Действие происходит в Париже. Молодая девушка, дочь миллионера, втайне промышляющего подделкой произведений искусства, и преступник, должны выкрасть с выставки изобразительного искусства в музее один из «шедевров» отца девушки, чтобы спасти его от разоблачения.- Страна: США
    Продолжительность: 02:03:24

    Файл
    Кодек: MPEG4/ISO/AVC/H.264
    Формат: MKV
    Качество: BDRip 720p | 60 fps
    Видео: 1280 x 544 (2.353) | 59.940 fps | 9.0 Мбит/сек
    Аудио 1: AC3 | 2.0 | 48 kHz | 192 kbps | 16 bit | 16 bit | Дубляж - Мосфильм |
    Аудио 1: AC3 | 5.1 | 48 kHz | 640 kbps | 16 bit | 16 bit | Профессиональный (многоголосый закадровый) - Film Prestige |
    Аудио 1: AC3 | 2.0 | 48 kHz | 192 kbps | 16 bit | 16 bit | Авторский (одноголосый закадровый) - П.Карцев |
    Аудио 2: AC3 | 5.1 | 48 kHz | 640 kbps | 16 bit | ENG |
    Субтитры: Русские, Eng

    MedifInfo

    Видео
    Идентификатор : 1
    Формат : AVC
    Формат/Информация : Advanced Video Codec
    Профиль формата : [email protected]
    Параметр CABAC формата : Да
    Параметр ReFrames формата : 5 кадров
    Идентификатор кодека : V_MPEG4/ISO/AVC
    Продолжительность : 2 ч. 3 м.
    Битрейт : 8999 Кбит/сек
    Ширина : 1280 пикселей
    Высота : 544 пикселя
    Соотношение сторон : 2,35:1
    Режим частоты кадров : Постоянный
    Частота кадров : 59,880 кадров/сек
    Частота кадров в оригинале : 59,940 кадров/сек
    Цветовое пространство : YUV
    Субдискретизация насыщенности : 4:2:0
    Битовая глубина : 8 бит
    Тип развёртки : Прогрессивная
    Бит/(Пиксели*Кадры) : 0.216
    Размер потока : 7,60 Гбайт (82%)
    Заголовок : www.60-fps.org
    Библиотека кодирования : x264 core 148 r2638 7599210
    Настройки программы : cabac=1 / ref=5 / deblock=1:-3:-3 / analyse=0x3:0x113 / me=umh / subme=8 / psy=1 / psy_rd=1.00:0.25 / mixed_ref=1 / me_range=32 / chroma_me=1 / trellis=1 / 8x8dct=1 / cqm=0 / deadzone=6,6 / fast_pskip=1 / chroma_qp_offset=-4 / threads=12 / lookahead_threads=2 / sliced_threads=0 / nr=0 / decimate=0 / interlaced=0 / bluray_compat=0 / constrained_intra=0 / bframes=3 / b_pyramid=2 / b_adapt=2 / b_bias=0 / direct=3 / weightb=1 / open_gop=0 / weightp=2 / keyint=599 / keyint_min=59 / scenecut=40 / intra_refresh=0 / rc_lookahead=50 / rc=2pass / mbtree=1 / bitrate=8999 / ratetol=1.0 / qcomp=0.80 / qpmin=0 / qpmax=69 / qpstep=4 / cplxblur=20.0 / qblur=0.5 / vbv_maxrate=62500 / vbv_bufsize=78125 / nal_hrd=none / filler=0 / ip_ratio=1.10 / aq=1:0.50
    Default : Да
    Forced : Нет
    Аудио #1
    Идентификатор : 2
    Формат : AC-3
    Формат/Информация : Audio Coding 3
    Расширение режима : CM (complete main)
    Параметр Endianness формата : Big
    Идентификатор кодека : A_AC3
    Продолжительность : 2 ч. 3 м.
    Вид битрейта : Постоянный
    Битрейт : 192 Кбит/сек
    Каналы : 2 канала
    Расположение каналов : Front: L R
    Частота : 48,0 КГц
    Битовая глубина : 16 бит
    Метод сжатия : С потерями
    Размер потока : 169 Мбайт (2%)
    Заголовок : Профессиональный (дублированный) Мосфильм
    Язык : Russian
    Default : Нет
    Forced : Нет
    Аудио #2
    Идентификатор : 3
    Формат : AC-3
    Формат/Информация : Audio Coding 3
    Расширение режима : CM (complete main)
    Параметр Endianness формата : Big
    Идентификатор кодека : A_AC3
    Продолжительность : 2 ч. 3 м.
    Вид битрейта : Постоянный
    Битрейт : 640 Кбит/сек
    Каналы : 6 каналов
    Расположение каналов : Front: L C R, Side: L R, LFE
    Частота : 48,0 КГц
    Битовая глубина : 16 бит
    Метод сжатия : С потерями
    Размер потока : 565 Мбайт (6%)
    Заголовок : Профессиональный (многоголосый закадровый) Film Prestige
    Default : Нет
    Forced : Нет
    Аудио #3
    Идентификатор : 4
    Формат : AC-3
    Формат/Информация : Audio Coding 3
    Расширение режима : CM (complete main)
    Параметр Endianness формата : Big
    Идентификатор кодека : A_AC3
    Продолжительность : 2 ч. 3 м.
    Вид битрейта : Постоянный
    Битрейт : 192 Кбит/сек
    Каналы : 2 канала
    Расположение каналов : Front: L R
    Частота : 48,0 КГц
    Битовая глубина : 16 бит
    Метод сжатия : С потерями
    Размер потока : 169 Мбайт (2%)
    Заголовок : Авторский (одноголосый закадровый) П.Карцев
    Язык : Russian
    Default : Нет
    Forced : Нет
    Аудио #4
    Идентификатор : 5
    Формат : AC-3
    Формат/Информация : Audio Coding 3
    Расширение режима : CM (complete main)
    Параметр Endianness формата : Big
    Идентификатор кодека : A_AC3
    Продолжительность : 2 ч. 3 м.
    Вид битрейта : Постоянный
    Битрейт : 640 Кбит/сек
    Каналы : 6 каналов
    Расположение каналов : Front: L C R, Side: L R, LFE
    Частота : 48,0 КГц
    Битовая глубина : 16 бит
    Метод сжатия : С потерями
    Размер потока : 565 Мбайт (6%)
    Заголовок : Eng
    Default : Нет
    Forced : Нет
    Текст #1
    Идентификатор : 6
    Формат : PGS
    Режим смешивания : zlib
    Идентификатор кодека : S_HDMV/PGS
    Идентификатор кодека/Информация : The same subtitle format used on BDs/HD-DVDs
    Язык : Russian
    Default : Нет
    Forced : Нет
    Текст #2
    Идентификатор : 7
    Формат : PGS
    Режим смешивания : zlib
    Идентификатор кодека : S_HDMV/PGS
    Идентификатор кодека/Информация : The same subtitle format used on BDs/HD-DVDs
    Язык : English
    Default : Нет
    Forced : Нет

    Release was prepared by 60-fps.org

  2. Longevity:
    6 years 6 months
    Posts:
    33
    Gender:
    Male
    Спасибо за Одри
    29-Nov-2016 17:16 (after 7 hours)
  3. Longevity:
    6 years 7 months
    Posts:
    2414
    Gender:
    Male
    Владимир 1965,
    Пожалуйста .
    29-Nov-2016 17:28 (after 12 minutes)
  4. Longevity:
    4 years 6 months
    Posts:
    110
    Gender:
    Male
    Хорошая комедия, имеет смысл качать?
    30-Nov-2016 12:30 (after 19 hours)
  5. Longevity:
    4 years 4 months
    Posts:
    1
    Gender:
    Unknown
    Раздайте пожалуйста этот фильм
    16-Sep-2019 21:22 (after 2 years 9 months)


You cannot post new topics in this forum
You cannot reply to topics in this forum
You cannot edit your posts in this forum
You cannot delete your posts in this forum
You cannot vote in polls in this forum
You cannot attach files in this forum
You cannot download files in this forum