Как приручить дракона

-Название: Как приручить дракона
Оригинальное название: How to Train Your Dragon
Год выпуска: 2010
Страна: США
Жанр: мультфильм, фэнтези, комедия, приключения, семейный
Продолжительность: 01:37:51
Перевод: Дубляж
Субтитры: русские (Полные), английские (Полные)-Режиссер: Дин ДеБлуа / Dean DeBlois, Крис Сандерс / Chris Sanders-В ролях: Джей Барушель (Hiccup, озвучка), Джерард Батлер (Stoick, озвучка), Крэйг Фергюсон (Gobber, озвучка), Америка Феррера (Astrid, озвучка), Джона Хилл (Snotlout, озвучка), Кристофер Минц-Плассе (Fishlegs, озвучка), ТиДжей Миллер (Tuffnut, озвучка), Кристен Уиг (Ruffnut, озвучка), Робин Аткин Даунс (Ack, озвучка), Филип МакГрэйд (Starkard, озвучка), Кирон Эллиотт (Hoark the Haggard, озвучка), Эшли Дженсен (Phlegma the Fierce, озвучка)-Описание:
Вы узнаете историю подростка Иккинга, которому не слишком близки традиции его героического племени, много лет ведущего войну с драконами. Мир Иккинга переворачивается с ног на голову, когда он неожиданно встречает дракона Беззубика, который поможет ему и другим викингам увидеть привычный мир с совершенно другой стороны...-Рейтинг
kinopoisk.ru: 8.445 (155 829)
imdb.com: 8.20 (337 511)
MPAA: PG - Рекомендуется присутствие родителей-Автор рипа:Tiberiumsun69
-Качество: BDRip 1080p / 60 FPS
Формат: MKV
Видео кодек: AVC
Аудио кодек:AC3
Видео: AVC, 1920x816, 14000 kbps, 59,940 fps
Аудио №1: русский / AC3 / 5.1 / 48 kHz / 640 kbps / 16 bit |Дубляж|
Аудио №2: английский / AC3 / 5.1 / 48 kHz / 640 kbps / 16 bit
Навигация по главам: есть- -

MI

General
Unique ID : 254537874027156691205997859127853976694 (0xBF7E361B7D50DD76A501E95F0C920C76)
Complete name : A:\1080p 60fps\Драконы 1080p 60fps\Как приручить дракона 1 1080p 60fps.mkv
Format : Matroska
Format version : Version 4 / Version 2
File size : 10.4 GiB
Duration : 1h 37mn
Overall bit rate : 15.3 Mbps
Encoded date : UTC 2014-10-26 09:46:19
Writing application : mkvmerge v6.9.1 ('Blue Panther') 64bit built on Apr 18 2014 18:23:38
Writing library : libebml v1.3.0 + libmatroska v1.4.1
Video
ID : 1
Format : AVC
Format/Info : Advanced Video Codec
Format profile : High@L4.1
Format settings, CABAC : Yes
Format settings, ReFrames : 4 frames
Codec ID : V_MPEG4/ISO/AVC
Duration : 1h 37mn
Bit rate : 14.0 Mbps
Width : 1 920 pixels
Height : 816 pixels
Display aspect ratio : 2.35:1
Frame rate : 59.940 fps
Color space : YUV
Chroma subsampling : 4:2:0
Bit depth : 8 bits
Scan type : Progressive
Bits/(Pixel*Frame) : 0.149
Stream size : 9.36 GiB (90%)
Writing library : x264 core 130 r2273 b3065e6
Encoding settings : cabac=1 / ref=4 / deblock=1:-1:-1 / analyse=0x3:0 / me=umh / subme=9 / psy=1 / psy_rd=1.00:0.00 / mixed_ref=1 / me_range=44 / chroma_me=0 / trellis=2 / 8x8dct=1 / cqm=0 / deadzone=21,11 / fast_pskip=0 / chroma_qp_offset=-2 / threads=12 / lookahead_threads=1 / sliced_threads=0 / nr=0 / decimate=0 / interlaced=0 / bluray_compat=0 / constrained_intra=0 / bframes=5 / b_pyramid=2 / b_adapt=2 / b_bias=0 / direct=3 / weightb=1 / open_gop=0 / weightp=2 / keyint=250 / keyint_min=59 / scenecut=40 / intra_refresh=0 / rc_lookahead=60 / rc=2pass / mbtree=1 / bitrate=14000 / ratetol=1.0 / qcomp=0.80 / qpmin=0 / qpmax=69 / qpstep=4 / cplxblur=20.0 / qblur=0.5 / ip_ratio=1.40 / aq=1:0.80
Language : English
Default : Yes
Forced : No
Audio #1
ID : 2
Format : AC-3
Format/Info : Audio Coding 3
Mode extension : CM (complete main)
Codec ID : A_AC3
Duration : 1h 37mn
Bit rate mode : Constant
Bit rate : 640 Kbps
Channel(s) : 6 channels
Channel positions : Front: L C R, Side: L R, LFE
Sampling rate : 48.0 KHz
Bit depth : 16 bits
Compression mode : Lossy
Stream size : 448 MiB (4%)
Title : Дубляж
Language : Russian
Default : Yes
Forced : No
Audio #2
ID : 3
Format : AC-3
Format/Info : Audio Coding 3
Mode extension : CM (complete main)
Codec ID : A_AC3
Duration : 1h 37mn
Bit rate mode : Constant
Bit rate : 640 Kbps
Channel(s) : 6 channels
Channel positions : Front: L C R, Side: L R, LFE
Sampling rate : 48.0 KHz
Bit depth : 16 bits
Compression mode : Lossy
Stream size : 448 MiB (4%)
Title : Оригинал
Language : English
Default : No
Forced : No
Text #1
ID : 4
Format : UTF-8
Codec ID : S_TEXT/UTF8
Codec ID/Info : UTF-8 Plain Text
Title : Полные
Language : Russian
Default : No
Forced : No
Text #2
ID : 5
Format : UTF-8
Codec ID : S_TEXT/UTF8
Codec ID/Info : UTF-8 Plain Text
Title : Полные
Language : English
Default : No
Forced : No
Menu
00:00:00.000 : en:00:00:00.000
00:08:39.811 : en:00:08:39.811
00:11:31.983 : en:00:11:31.983
00:15:11.035 : en:00:15:11.035
00:21:57.107 : en:00:21:57.107
00:27:41.702 : en:00:27:41.702
00:33:14.201 : en:00:33:14.201
00:39:07.136 : en:00:39:07.136
00:43:28.731 : en:00:43:28.731
00:47:08.367 : en:00:47:08.367
00:49:47.193 : en:00:49:47.193
00:59:55.801 : en:00:59:55.801
01:04:47.383 : en:01:04:47.383
01:09:28.164 : en:01:09:28.164
01:12:38.187 : en:01:12:38.187
01:23:26.043 : en:01:23:26.043
01:28:54.496 : en:01:28:54.496

Скриншоты

Как приручить дракона 2

-Название: Как приручить дракона 2
Оригинальное название: How to Train Your Dragon 2
Год выпуска: 2014
Страна: США
Жанр: мультфильм, фэнтези, комедия, приключения, семейный
Продолжительность: 01:41:55
Перевод: Дубляж
Субтитры: русские (Форсированные), русские (Полные), английские (Полные)-Режиссер: Дин ДеБлуа / Dean DeBlois-В ролях: Джей Барушель (Hiccup, озвучка), Кейт Бланшетт (Valka, озвучка), Джерард Батлер (Stoick, озвучка), Крэйг Фергюсон (Gobber, озвучка), Америка Феррера (Astrid, озвучка), Джона Хилл (Snotlout, озвучка), Кристофер Минц-Плассе (Fishlegs, озвучка), ТиДжей Миллер (Tuffnut, озвучка), Кристен Уиг (Ruffnut, озвучка), Джимон Хонсу (Drago, озвучка), Кит Харингтон (Eret, озвучка), Кирон Эллиотт (Hoark the Haggard, озвучка)-Описание:
С момента примирения викингов и драконов прошло пять лет. Пока Астрид, Сморкала и остальные ребята проводят время, соревнуясь друг с другом в популярных на острове драконьих гонках, Иккинг и Беззубик путешествуют по небу, составляя карту неизвестных мест. Когда одно из их приключений приводит к открытию тайной ледяной пещеры, которая является домом для сотен ранее невиданных диких драконов и таинственного драконьего всадника, два друга оказываются в центре битвы за защиту мира.-Рейтинг
kinopoisk.ru: 8.247 (41 558)
imdb.com: 8.10 (93 083)
MPAA: PG - Рекомендуется присутствие родителей-Автор рипа:Tiberiumsun69
-Качество: BDRip 1080p / 60 FPS
Формат: MKV
Видео кодек: AVC
Аудио кодек:AC3, DTS
Видео: AVC, 1920x816, 14000 kbps, 59,940 fps
Аудио №1: русский / AC3 / 5.1 / 48 kHz / 640 kbps / 16 bit |Дубляж|
Аудио №2: английский / AC3 / 5.1 / 48 kHz / 640 kbps / 16 bit
Аудио №3: русский / DTS / 5.1 / 48 kHz / 755 kbps / 24 bit |Дубляж|
Навигация по главам: есть- -

MI

General
Unique ID : 232956296733365890840794231309926952858 (0xAF41C031E3667A3FB727E07527106F9A)
Complete name : A:\1080p 60fps\Драконы 1080p 60fps\Как приручить дракона 2 1080p 60fps.mkv
Format : Matroska
Format version : Version 4 / Version 2
File size : 11.4 GiB
Duration : 1h 41mn
Overall bit rate : 16.0 Mbps
Encoded date : UTC 2014-10-26 09:25:38
Writing application : mkvmerge v6.9.1 ('Blue Panther') 64bit built on Apr 18 2014 18:23:38
Writing library : libebml v1.3.0 + libmatroska v1.4.1
Video
ID : 1
Format : AVC
Format/Info : Advanced Video Codec
Format profile : High@L4.1
Format settings, CABAC : Yes
Format settings, ReFrames : 4 frames
Codec ID : V_MPEG4/ISO/AVC
Duration : 1h 41mn
Bit rate : 14.0 Mbps
Width : 1 920 pixels
Height : 816 pixels
Display aspect ratio : 2.35:1
Frame rate : 59.940 fps
Color space : YUV
Chroma subsampling : 4:2:0
Bit depth : 8 bits
Scan type : Progressive
Bits/(Pixel*Frame) : 0.149
Stream size : 9.75 GiB (85%)
Writing library : x264 core 130 r2273 b3065e6
Encoding settings : cabac=1 / ref=4 / deblock=1:-1:-1 / analyse=0x3:0 / me=umh / subme=9 / psy=1 / psy_rd=1.00:0.00 / mixed_ref=1 / me_range=44 / chroma_me=0 / trellis=2 / 8x8dct=1 / cqm=0 / deadzone=21,11 / fast_pskip=0 / chroma_qp_offset=-2 / threads=12 / lookahead_threads=1 / sliced_threads=0 / nr=0 / decimate=0 / interlaced=0 / bluray_compat=0 / constrained_intra=0 / bframes=5 / b_pyramid=2 / b_adapt=2 / b_bias=0 / direct=3 / weightb=1 / open_gop=0 / weightp=2 / keyint=250 / keyint_min=59 / scenecut=40 / intra_refresh=0 / rc_lookahead=60 / rc=2pass / mbtree=1 / bitrate=14000 / ratetol=1.0 / qcomp=0.80 / qpmin=0 / qpmax=69 / qpstep=4 / cplxblur=20.0 / qblur=0.5 / ip_ratio=1.40 / aq=1:0.80
Language : English
Default : Yes
Forced : No
Audio #1
ID : 2
Format : AC-3
Format/Info : Audio Coding 3
Mode extension : CM (complete main)
Codec ID : A_AC3
Duration : 1h 41mn
Bit rate mode : Constant
Bit rate : 640 Kbps
Channel(s) : 6 channels
Channel positions : Front: L C R, Side: L R, LFE
Sampling rate : 48.0 KHz
Bit depth : 16 bits
Compression mode : Lossy
Stream size : 467 MiB (4%)
Title : Дубляж
Language : Russian
Default : Yes
Forced : No
Audio #2
ID : 3
Format : AC-3
Format/Info : Audio Coding 3
Mode extension : CM (complete main)
Codec ID : A_AC3
Duration : 1h 41mn
Bit rate mode : Constant
Bit rate : 640 Kbps
Channel(s) : 6 channels
Channel positions : Front: L C R, Side: L R, LFE
Sampling rate : 48.0 KHz
Bit depth : 16 bits
Compression mode : Lossy
Stream size : 467 MiB (4%)
Title : Оригинал
Language : English
Default : No
Forced : No
Audio #3
ID : 4
Format : DTS
Format/Info : Digital Theater Systems
Codec ID : A_DTS
Duration : 1h 41mn
Bit rate mode : Constant
Bit rate : 755 Kbps
Channel(s) : 6 channels
Channel positions : Front: L C R, Side: L R, LFE
Sampling rate : 48.0 KHz
Bit depth : 24 bits
Compression mode : Lossy
Stream size : 550 MiB (5%)
Title : Дубляж
Language : Russian
Default : No
Forced : No
Text #1
ID : 5
Format : UTF-8
Codec ID : S_TEXT/UTF8
Codec ID/Info : UTF-8 Plain Text
Title : Форсированные
Language : Russian
Default : Yes
Forced : No
Text #2
ID : 6
Format : UTF-8
Codec ID : S_TEXT/UTF8
Codec ID/Info : UTF-8 Plain Text
Title : Полные
Language : Russian
Default : No
Forced : No
Text #3
ID : 7
Format : UTF-8
Codec ID : S_TEXT/UTF8
Codec ID/Info : UTF-8 Plain Text
Title : Полные
Language : English
Default : No
Forced : No
Menu
00:00:00.000 : en:Chapter 01
00:03:27.999 : en:Chapter 02
00:05:20.695 : en:Chapter 03
00:07:46.007 : en:Chapter 04
00:10:16.032 : en:Chapter 05
00:13:16.337 : en:Chapter 06
00:16:59.059 : en:Chapter 07
00:20:01.700 : en:Chapter 08
00:23:43.255 : en:Chapter 09
00:27:14.466 : en:Chapter 10
00:29:21.468 : en:Chapter 11
00:33:41.936 : en:Chapter 12
00:37:05.473 : en:Chapter 13
00:39:06.969 : en:Chapter 14
00:40:59.165 : en:Chapter 15
00:45:03.992 : en:Chapter 16
00:47:16.625 : en:Chapter 17
00:51:51.525 : en:Chapter 18
00:54:35.730 : en:Chapter 19
00:56:15.997 : en:Chapter 20
01:00:33.171 : en:Chapter 21
01:04:28.781 : en:Chapter 22
01:06:34.949 : en:Chapter 23
01:09:44.138 : en:Chapter 24
01:14:02.146 : en:Chapter 25
01:18:35.127 : en:Chapter 26
01:21:07.153 : en:Chapter 27
01:22:55.053 : en:Chapter 28
01:24:30.065 : en:Chapter 29
01:28:04.654 : en:Chapter 30
01:31:03.499 : en:Chapter 31
01:32:21.994 : en:Chapter 32

Скриншоты

Бонус

Легенда о Костоломе

-Название: Легенда о Костоломе
Оригинальное название: Legend of the Boneknapper Dragon
Год выпуска: 2010
Страна: США
Жанр: мультфильм, короткометражка, фэнтези
Продолжительность: 00:16:33
Перевод: Дубляж
Субтитры: русские (Полные), английские (Полные)-Режиссер: Джон Пуглиси / John Puglisi-В ролях: Джей Барушель (Hiccup, озвучка), Джерард Батлер (Stoick, озвучка), Крэйг Фергюсон (Gobber, озвучка), Америка Феррера (Astrid, озвучка), Джона Хилл (Snotlout, озвучка), Кристофер Минц-Плассе (Fishlegs, озвучка), ТиДжей Миллер (Tuffnut, озвучка), Кристен Уиг (Ruffnut, озвучка), Джон Ди Маджио (Gobber's Father, озвучка, в титрах не указан), Кевин Майкл Ричардсон (Thor, озвучка, в титрах не указан)-Описание:
Иккинг и юные Викинги отправляются в путешествие со своим наставником Плевакой, чтобы помочь ему победить своего заклятого врага - легендарного дракона Костолома.-Рейтинг
kinopoisk.ru: 7.215 (3160)
imdb.com: 7.00 (1263)-Автор рипа:Tiberiumsun69
-Качество: BDRip 1080p / 60 FPS
Формат: MKV
Видео кодек: AVC
Аудио кодек:AC3
Видео: AVC, 1920x1080, 14000 kbps, 59,940 fps
Аудио №1: русский / AC3 / 2.0 / 48 kHz / 224 kbps / 16 bit |Дубляж|
Аудио №2: английский / AC3 / 5.1 / 48 kHz / 640 kbps / 16 bit- -

MI

General
Unique ID : 193935262789663570565584980027042231429 (0x91E692AF56224E9990304AC4D780F485)
Complete name : A:\1080p 60fps\Драконы 1080p 60fps\Бонус\Легенда о Костоломе 1080p 60fps.mkv
Format : Matroska
Format version : Version 4 / Version 2
File size : 1.71 GiB
Duration : 16mn 33s
Overall bit rate : 14.7 Mbps
Encoded date : UTC 2014-10-26 10:22:20
Writing application : mkvmerge v6.9.1 ('Blue Panther') 64bit built on Apr 18 2014 18:23:38
Writing library : libebml v1.3.0 + libmatroska v1.4.1
Video
ID : 1
Format : AVC
Format/Info : Advanced Video Codec
Format profile : High@L4.1
Format settings, CABAC : Yes
Format settings, ReFrames : 4 frames
Codec ID : V_MPEG4/ISO/AVC
Duration : 16mn 33s
Bit rate : 14.0 Mbps
Width : 1 920 pixels
Height : 1 080 pixels
Display aspect ratio : 16:9
Frame rate : 59.940 fps
Color space : YUV
Chroma subsampling : 4:2:0
Bit depth : 8 bits
Scan type : Progressive
Bits/(Pixel*Frame) : 0.113
Stream size : 1.57 GiB (92%)
Writing library : x264 core 130 r2273 b3065e6
Encoding settings : cabac=1 / ref=4 / deblock=1:-1:-1 / analyse=0x3:0 / me=umh / subme=9 / psy=1 / psy_rd=1.00:0.00 / mixed_ref=1 / me_range=44 / chroma_me=0 / trellis=2 / 8x8dct=1 / cqm=0 / deadzone=21,11 / fast_pskip=0 / chroma_qp_offset=-2 / threads=12 / lookahead_threads=1 / sliced_threads=0 / nr=0 / decimate=0 / interlaced=0 / bluray_compat=0 / constrained_intra=0 / bframes=5 / b_pyramid=2 / b_adapt=2 / b_bias=0 / direct=3 / weightb=1 / open_gop=0 / weightp=2 / keyint=250 / keyint_min=59 / scenecut=40 / intra_refresh=0 / rc_lookahead=60 / rc=2pass / mbtree=1 / bitrate=14000 / ratetol=1.0 / qcomp=0.80 / qpmin=0 / qpmax=69 / qpstep=4 / cplxblur=20.0 / qblur=0.5 / ip_ratio=1.40 / aq=1:0.80
Language : English
Default : Yes
Forced : No
Audio #1
ID : 2
Format : AC-3
Format/Info : Audio Coding 3
Mode extension : CM (complete main)
Codec ID : A_AC3
Duration : 16mn 33s
Bit rate mode : Constant
Bit rate : 224 Kbps
Channel(s) : 2 channels
Channel positions : Front: L R
Sampling rate : 48.0 KHz
Bit depth : 16 bits
Compression mode : Lossy
Stream size : 26.5 MiB (2%)
Title : Дубляж
Language : Russian
Default : Yes
Forced : No
Audio #2
ID : 3
Format : AC-3
Format/Info : Audio Coding 3
Mode extension : CM (complete main)
Codec ID : A_AC3
Duration : 16mn 33s
Bit rate mode : Constant
Bit rate : 640 Kbps
Channel(s) : 6 channels
Channel positions : Front: L C R, Side: L R, LFE
Sampling rate : 48.0 KHz
Bit depth : 16 bits
Compression mode : Lossy
Stream size : 75.8 MiB (4%)
Title : Оригинал
Language : English
Default : No
Forced : No
Text #1
ID : 4
Format : UTF-8
Codec ID : S_TEXT/UTF8
Codec ID/Info : UTF-8 Plain Text
Title : Полные
Language : Russian
Default : No
Forced : No
Text #2
ID : 5
Format : UTF-8
Codec ID : S_TEXT/UTF8
Codec ID/Info : UTF-8 Plain Text
Title : Полные
Language : English
Default : No
Forced : No

Скриншоты

Книга драконов

-Название: Книга драконов
Оригинальное название: Book of Dragons
Год выпуска: 2011
Страна: США
Жанр: мультфильм, короткометражка, фэнтези, комедия
Продолжительность: 00:17:38
Перевод: Дубляж
Субтитры: русские (Полные), английские (Полные)-Режиссер: Стив Хикнер / Steve Hickner-В ролях: Джей Барушель (Hiccup, озвучка), Крэйг Фергюсон (Gobber, озвучка), Америка Феррера (Astrid, озвучка), Кристофер Минц-Плассе (Fishlegs, озвучка), Джим Каммингс (Bork, озвучка), Тресс МакНилл (Bork's Wife, озвучка)-Описание:
Иккинг, Астрид, Беззубик и Плевака поведают легенды из Книги Драконов и раскроют секреты о новых, никогда-ранее-не-виданных драконах.-Рейтинг
kinopoisk.ru: 6.635 (2177)
imdb.com: 6.20 (755)-Автор рипа:Tiberiumsun69
-Качество: BDRip 1080p / 60 FPS
Формат: MKV
Видео кодек: AVC
Аудио кодек:AC3
Видео: AVC, 1920x1080, 14000 kbps, 59,940 fps
Аудио №1: русский / AC3 / 2.0 / 48 kHz / 224 kbps / 16 bit |Дубляж|
Аудио №2: английский / AC3 / 5.1 / 48 kHz / 640 kbps / 16 bit- -

MI

General
Unique ID : 200326521733380670117248658515021766130 (0x96B57C1463D33BEBBD3979A9C5B39DF2)
Complete name : A:\1080p 60fps\Драконы 1080p 60fps\Бонус\Книга Драконов 1080p 60fps.mkv
Format : Matroska
Format version : Version 4 / Version 2
File size : 1.83 GiB
Duration : 17mn 38s
Overall bit rate : 14.8 Mbps
Encoded date : UTC 2014-10-26 10:14:09
Writing application : mkvmerge v6.9.1 ('Blue Panther') 64bit built on Apr 18 2014 18:23:38
Writing library : libebml v1.3.0 + libmatroska v1.4.1
Video
ID : 1
Format : AVC
Format/Info : Advanced Video Codec
Format profile : High@L4.1
Format settings, CABAC : Yes
Format settings, ReFrames : 4 frames
Codec ID : V_MPEG4/ISO/AVC
Duration : 17mn 38s
Bit rate : 14.0 Mbps
Width : 1 920 pixels
Height : 1 080 pixels
Display aspect ratio : 16:9
Frame rate : 59.940 fps
Color space : YUV
Chroma subsampling : 4:2:0
Bit depth : 8 bits
Scan type : Progressive
Bits/(Pixel*Frame) : 0.113
Stream size : 1.69 GiB (92%)
Writing library : x264 core 130 r2273 b3065e6
Encoding settings : cabac=1 / ref=4 / deblock=1:-1:-1 / analyse=0x3:0 / me=umh / subme=9 / psy=1 / psy_rd=1.00:0.00 / mixed_ref=1 / me_range=44 / chroma_me=0 / trellis=2 / 8x8dct=1 / cqm=0 / deadzone=21,11 / fast_pskip=0 / chroma_qp_offset=-2 / threads=12 / lookahead_threads=1 / sliced_threads=0 / nr=0 / decimate=0 / interlaced=0 / bluray_compat=0 / constrained_intra=0 / bframes=5 / b_pyramid=2 / b_adapt=2 / b_bias=0 / direct=3 / weightb=1 / open_gop=0 / weightp=2 / keyint=250 / keyint_min=59 / scenecut=40 / intra_refresh=0 / rc_lookahead=60 / rc=2pass / mbtree=1 / bitrate=14000 / ratetol=1.0 / qcomp=0.80 / qpmin=0 / qpmax=69 / qpstep=4 / cplxblur=20.0 / qblur=0.5 / ip_ratio=1.40 / aq=1:0.80
Language : English
Default : Yes
Forced : No
Audio #1
ID : 2
Format : AC-3
Format/Info : Audio Coding 3
Mode extension : CM (complete main)
Codec ID : A_AC3
Duration : 17mn 38s
Bit rate mode : Constant
Bit rate : 224 Kbps
Channel(s) : 2 channels
Channel positions : Front: L R
Sampling rate : 48.0 KHz
Bit depth : 16 bits
Compression mode : Lossy
Stream size : 28.3 MiB (2%)
Title : Дубляж
Language : Russian
Default : Yes
Forced : No
Audio #2
ID : 3
Format : AC-3
Format/Info : Audio Coding 3
Mode extension : CM (complete main)
Codec ID : A_AC3
Duration : 17mn 38s
Bit rate mode : Constant
Bit rate : 640 Kbps
Channel(s) : 6 channels
Channel positions : Front: L C R, Side: L R, LFE
Sampling rate : 48.0 KHz
Bit depth : 16 bits
Compression mode : Lossy
Stream size : 80.8 MiB (4%)
Title : Оригинал
Language : English
Default : No
Forced : No
Text #1
ID : 4
Format : UTF-8
Codec ID : S_TEXT/UTF8
Codec ID/Info : UTF-8 Plain Text
Title : Полные
Language : Russian
Default : No
Forced : No
Text #2
ID : 5
Format : UTF-8
Codec ID : S_TEXT/UTF8
Codec ID/Info : UTF-8 Plain Text
Title : Полные
Language : English
Default : No
Forced : No

Скриншоты

Драконы: Подарок ночной фурии

-Название: Драконы: Подарок ночной фурии
Оригинальное название: Dragons: Gift of the Night Fury
Год выпуска: 2011
Страна: США
Жанр: мультфильм, короткометражка, фэнтези, приключения, семейный
Продолжительность: 00:22:12
Перевод: Дубляж
Субтитры: русские (Полные), английские (Полные)-Режиссер: Том Оуэнс / Tom Owens-В ролях: Джей Барушель (Hiccup Horrendous Haddock III / озвучка), Джерард Батлер (Stoick the Vast / озвучка), Крэйг Фергюсон (Gobber the Belch / озвучка), Америка Феррера (Astrid Hofferson / озвучка), Джона Хилл (Snotlout / озвучка), Кристофер Минц-Плассе (Fishlegs / озвучка), ТиДжей Миллер (Tuffnut / озвучка), Кристен Уиг (Ruffnut / озвучка), Бриджит Хоффман (Female Viking / озвучка), Питер Лавин (Viking 1 / озвучка), Нил Диксон (Viking 2 / озвучка), Йен Рускин (Viking 3 / озвучка)-Описание:
Беззубик снова помогает Иккингу стать героем, когда они отправляются в полёт и открывают остров, полный драконов, которых прежде никто ещё не видел. Драконы имеют в запасе немало сюрпризов для Иккинга, Астрид и остальных викингов.-Рейтинг
kinopoisk.ru: 8.095 (6670)
imdb.com: 7.60 (3008)-Автор рипа:Tiberiumsun69
-Качество: BDRip 1080p / 60 FPS
Формат: MKV
Видео кодек: AVC
Аудио кодек:AC3
Видео: AVC, 1920x1080, 14000 kbps, 59,940 fps
Аудио №1: русский / AC3 / 2.0 / 48 kHz / 224 kbps / 16 bit |Дубляж|
Аудио №2: английский / AC3 / 5.1 / 48 kHz / 640 kbps / 16 bit- -

MI

General
Unique ID : 236351194512986166987765966421318889084 (0xB1CF95940EABB0ECA7B8DD6438E2EE7C)
Complete name : A:\1080p 60fps\Драконы 1080p 60fps\Бонус\Драконы Подарок Ночной Фурии 1080p 60fps.mkv
Format : Matroska
Format version : Version 4 / Version 2
File size : 2.30 GiB
Duration : 22mn 12s
Overall bit rate : 14.9 Mbps
Encoded date : UTC 2014-10-26 10:05:40
Writing application : mkvmerge v6.9.1 ('Blue Panther') 64bit built on Apr 18 2014 18:23:38
Writing library : libebml v1.3.0 + libmatroska v1.4.1
Video
ID : 1
Format : AVC
Format/Info : Advanced Video Codec
Format profile : High@L4.1
Format settings, CABAC : Yes
Format settings, ReFrames : 4 frames
Codec ID : V_MPEG4/ISO/AVC
Duration : 22mn 12s
Bit rate : 14.0 Mbps
Width : 1 920 pixels
Height : 1 080 pixels
Display aspect ratio : 16:9
Frame rate : 59.940 fps
Color space : YUV
Chroma subsampling : 4:2:0
Bit depth : 8 bits
Scan type : Progressive
Bits/(Pixel*Frame) : 0.113
Stream size : 2.12 GiB (92%)
Writing library : x264 core 130 r2273 b3065e6
Encoding settings : cabac=1 / ref=4 / deblock=1:-1:-1 / analyse=0x3:0 / me=umh / subme=9 / psy=1 / psy_rd=1.00:0.00 / mixed_ref=1 / me_range=44 / chroma_me=0 / trellis=2 / 8x8dct=1 / cqm=0 / deadzone=21,11 / fast_pskip=0 / chroma_qp_offset=-2 / threads=12 / lookahead_threads=1 / sliced_threads=0 / nr=0 / decimate=0 / interlaced=0 / bluray_compat=0 / constrained_intra=0 / bframes=5 / b_pyramid=2 / b_adapt=2 / b_bias=0 / direct=3 / weightb=1 / open_gop=0 / weightp=2 / keyint=250 / keyint_min=59 / scenecut=40 / intra_refresh=0 / rc_lookahead=60 / rc=2pass / mbtree=1 / bitrate=14000 / ratetol=1.0 / qcomp=0.80 / qpmin=0 / qpmax=69 / qpstep=4 / cplxblur=20.0 / qblur=0.5 / ip_ratio=1.40 / aq=1:0.80
Language : English
Default : Yes
Forced : No
Audio #1
ID : 2
Format : AC-3
Format/Info : Audio Coding 3
Mode extension : CM (complete main)
Codec ID : A_AC3
Duration : 22mn 12s
Bit rate mode : Constant
Bit rate : 224 Kbps
Channel(s) : 2 channels
Channel positions : Front: L R
Sampling rate : 48.0 KHz
Bit depth : 16 bits
Compression mode : Lossy
Stream size : 35.6 MiB (2%)
Title : Дубляж
Language : Russian
Default : Yes
Forced : No
Audio #2
ID : 3
Format : AC-3
Format/Info : Audio Coding 3
Mode extension : CM (complete main)
Codec ID : A_AC3
Duration : 22mn 12s
Bit rate mode : Constant
Bit rate : 640 Kbps
Channel(s) : 6 channels
Channel positions : Front: L C R, Side: L R, LFE
Sampling rate : 48.0 KHz
Bit depth : 16 bits
Compression mode : Lossy
Stream size : 102 MiB (4%)
Title : Оригинал
Language : English
Default : No
Forced : No
Text #1
ID : 4
Format : UTF-8
Codec ID : S_TEXT/UTF8
Codec ID/Info : UTF-8 Plain Text
Title : Полные
Language : Russian
Default : No
Forced : No
Text #2
ID : 5
Format : UTF-8
Codec ID : S_TEXT/UTF8
Codec ID/Info : UTF-8 Plain Text
Title : Полные
Language : English
Default : No
Forced : No

Скриншоты

Драконы: Гонки бесстрашных. Начало

-Название: Драконы: Гонки бесстрашных. Начало
Оригинальное название: Dragons: Dawn of the Dragon Racers
Год выпуска: 2014
Страна: США
Жанр: мультфильм, короткометражка, комедия, приключения, семейный
Продолжительность: 00:26:37
Перевод: Дубляж
Субтитры: русские (Полные), английские (Полные)-Режиссер: Джон Санфорд / John Sanford, Илэйн Боган / Elaine Bogan-В ролях: Джей Барушель (озвучка), Америка Феррера (озвучка), Кристофер Минц-Плассе (озвучка), ТиДжей Миллер (озвучка), Нолан Норт (озвучка), Крис Эджерли (озвучка), Зак Перлман (озвучка)-Описание:
Поиски пропавшей овцы превращаются в соревнование между Иккингом и его друзьями за титул первого чемпиона драконьих гонок Олуха. Это история о расцвете драконьих гонок, и о том, как они стали самым популярным видом спорта на Олухе.-Рейтинг-Автор рипа:Tiberiumsun69
-Качество: BDRip 1080p / 60 FPS
Формат: MKV
Видео кодек: AVC
Аудио кодек:AC3
Видео: AVC, 1920x1080, 14000 kbps, 59,940 fps
Аудио №1: русский / AC3 / 5.1 / 48 kHz / 448 kbps / 16 bit |Дубляж|
Аудио №2: английский / AC3 / 5.1 / 48 kHz / 448 kbps / 16 bit- -

MI

General
Unique ID : 202216346512433658148016761407955045324 (0x982173A290862CC58728CC4435288BCC)
Complete name : A:\1080p 60fps\Драконы 1080p 60fps\Бонус\Драконы Гонки бесстрашных. Начало 1080p 60fps.mkv
Format : Matroska
Format version : Version 4 / Version 2
File size : 2.77 GiB
Duration : 26mn 37s
Overall bit rate : 14.9 Mbps
Encoded date : UTC 2014-10-26 09:57:25
Writing application : mkvmerge v6.9.1 ('Blue Panther') 64bit built on Apr 18 2014 18:23:38
Writing library : libebml v1.3.0 + libmatroska v1.4.1
Video
ID : 1
Format : AVC
Format/Info : Advanced Video Codec
Format profile : High@L4.1
Format settings, CABAC : Yes
Format settings, ReFrames : 4 frames
Codec ID : V_MPEG4/ISO/AVC
Duration : 26mn 37s
Bit rate : 14.0 Mbps
Width : 1 920 pixels
Height : 1 080 pixels
Display aspect ratio : 16:9
Frame rate : 59.940 fps
Color space : YUV
Chroma subsampling : 4:2:0
Bit depth : 8 bits
Scan type : Progressive
Bits/(Pixel*Frame) : 0.113
Stream size : 2.55 GiB (92%)
Writing library : x264 core 130 r2273 b3065e6
Encoding settings : cabac=1 / ref=4 / deblock=1:-1:-1 / analyse=0x3:0 / me=umh / subme=9 / psy=1 / psy_rd=1.00:0.00 / mixed_ref=1 / me_range=44 / chroma_me=0 / trellis=2 / 8x8dct=1 / cqm=0 / deadzone=21,11 / fast_pskip=0 / chroma_qp_offset=-2 / threads=12 / lookahead_threads=1 / sliced_threads=0 / nr=0 / decimate=0 / interlaced=0 / bluray_compat=0 / constrained_intra=0 / bframes=5 / b_pyramid=2 / b_adapt=2 / b_bias=0 / direct=3 / weightb=1 / open_gop=0 / weightp=2 / keyint=250 / keyint_min=59 / scenecut=40 / intra_refresh=0 / rc_lookahead=60 / rc=2pass / mbtree=1 / bitrate=14000 / ratetol=1.0 / qcomp=0.80 / qpmin=0 / qpmax=69 / qpstep=4 / cplxblur=20.0 / qblur=0.5 / ip_ratio=1.40 / aq=1:0.80
Language : English
Default : Yes
Forced : No
Audio #1
ID : 2
Format : AC-3
Format/Info : Audio Coding 3
Mode extension : CM (complete main)
Codec ID : A_AC3
Duration : 26mn 37s
Bit rate mode : Constant
Bit rate : 448 Kbps
Channel(s) : 6 channels
Channel positions : Front: L C R, Side: L R, LFE
Sampling rate : 48.0 KHz
Bit depth : 16 bits
Compression mode : Lossy
Stream size : 85.3 MiB (3%)
Title : Дубляж
Language : Russian
Default : Yes
Forced : No
Audio #2
ID : 3
Format : AC-3
Format/Info : Audio Coding 3
Mode extension : CM (complete main)
Codec ID : A_AC3
Duration : 26mn 37s
Bit rate mode : Constant
Bit rate : 448 Kbps
Channel(s) : 6 channels
Channel positions : Front: L C R, Side: L R, LFE
Sampling rate : 48.0 KHz
Bit depth : 16 bits
Compression mode : Lossy
Stream size : 85.3 MiB (3%)
Title : Оригинал
Language : English
Default : No
Forced : No
Text #1
ID : 4
Format : UTF-8
Codec ID : S_TEXT/UTF8
Codec ID/Info : UTF-8 Plain Text
Title : Полные
Language : Russian
Default : No
Forced : No
Text #2
ID : 5
Format : UTF-8
Codec ID : S_TEXT/UTF8
Codec ID/Info : UTF-8 Plain Text
Title : Полные
Language : English
Default : No
Forced : No

Скриншоты

Просьба к переливающим на другие сайты, в оформлении указывайте пожалуйста авторство рипа - Tiberiumsun69

[Цитировать]
Goreblaze

Очешуеть. Всё в одном месте. Огромное спасибо.

[Цитировать]
kirk

:ao: its not downloading at all

[Цитировать]
kirk

can you reseed how to train your dragon collection please wanting to watch it but no seed at all

[Цитировать]
Notys

Ура, собрал по крупицам! Теперь буду долго на раздаче сидеть!

[Цитировать]
alex1398

Встаньте кто нибудь на рараздачу. Буду очень благодарен Улыбаюсь

[Цитировать]
Kryl

6481Встаньте кто нибудь на рараздачу. Буду очень благодарен Улыбаюсь
Сидов: 19

[Цитировать]
anton4ik89

встаньте на раздачу кому не сложно

[Цитировать]
minuzz

Почему-то не качается... Друзья кто смог скачать?
Плачу

[Цитировать]
minuzz

Ура!!! Пошла скачка!!! Пошла родимая!!! Спасибо!!! ОК Танец
 
Показать сообщения:    

Текущее время: 24-Сен 08:00

Часовой пояс: UTC + 3


Вы не можете начинать темы
Вы не можете отвечать на сообщения
Вы не можете редактировать свои сообщения
Вы не можете удалять свои сообщения
Вы не можете голосовать в опросах
Вы не можете прикреплять файлы к сообщениям
Вы не можете скачивать файлы