[Цитировать]
Kryl

--Как приручить дракона 2 / How to Train Your Dragon 2 (2014) BDRip 720p от NNNB | 60 fps --Информация о фильме
Название: Как приручить дракона 2
Оригинальное название: How to Train Your Dragon 2
Год выхода: 2014
Жанр: мультфильм, фэнтези, комедия, приключения, семейный
Режиссер: Дин ДеБлуа
Продолжительность: 01:41:55
Перевод: Дублированный
В ролях:Джей Барушель, Кейт Бланшетт, Джерард Батлер, Крэйг Фергюсон, Америка Феррера, Джона Хилл, Кристофер Минц-Плассе, ТиДжей Миллер, Кристен Уиг, Джимон Хонсу
--О фильме:
С момента примирения викингов и драконов прошло пять лет. Пока Астрид, Сморкала и остальные ребята проводят время, соревнуясь друг с другом в популярных на острове драконьих гонках, Иккинг и Беззубик путешествуют по небу, составляя карту неизвестных мест. Когда одно из их приключений приводит к открытию тайной ледяной пещеры, которая является домом для сотен ранее невиданных диких драконов и таинственного драконьего всадника, два друга оказываются в центре битвы за защиту мира.
--Файл
Кодек: MPEG4/ISO/AVCH.264
Формат: MKV
Качество: BDRip 720p (исходник Blu-ray Disc)
Видео: 1280x544, 5430 Кбит/сек, 59.940 кадр/сек, AVC, x264, High@L4.1, 2.35:1, 0.130 Бит/[Пиксели*Кадры]
Аудио 1: AC-3, 448 Кбит/сек, 6 канала(ов), 48,0 КГц - Дублированный / Русский
Аудио 2: AC-3, 640 Кбит/сек, 6 канала(ов), 48,0 КГц - Оригинал / Английский
Субтитры: Русские | Полные, Английские | Полные
-

MI

Format : Matroska
Format version : Version 2
File size : 4.64 GiB
Duration : 1h 41mn
Overall bit rate : 6 523 Kbps
Movie name : Как приручить дракона 2.(2014).BDRip.720p.[envy].[60fps]
Encoded date : UTC 2014-10-19 14:38:45
Writing application : mkvmerge v5.8.0 ('No Sleep / Pillow') built on Sep 2 2012 15:37:04
Writing library : libebml v1.2.3 + libmatroska v1.3.0
Video
ID : 1
Format : AVC
Format/Info : Advanced Video Codec
Format profile : High@L4.1
Format settings, CABAC : Yes
Format settings, ReFrames : 9 frames
Codec ID : V_MPEG4/ISO/AVC
Duration : 1h 41mn
Bit rate : 5 430 Kbps
Width : 1 280 pixels
Height : 544 pixels
Display aspect ratio : 2.35:1
Frame rate mode : Constant
Frame rate : 59.880 fps
Original frame rate : 59.940 fps
Color space : YUV
Chroma subsampling : 4:2:0
Bit depth : 8 bits
Scan type : Progressive
Bits/(Pixel*Frame) : 0.130
Stream size : 3.78 GiB (81%)
Title : Как приручить дракона 2.(2014).BDRip.720p.[envy].[60fps]
Writing library : x264 core 130 r2273 b3065e6
Encoding settings : cabac=1 / ref=9 / deblock=1:0:0 / analyse=0x3:0x133 / me=umh / subme=10 / psy=1 / psy_rd=1.00:0.00 / mixed_ref=1 / me_range=32 / chroma_me=1 / trellis=2 / 8x8dct=1 / cqm=0 / deadzone=21,11 / fast_pskip=0 / chroma_qp_offset=-2 / threads=12 / lookahead_threads=2 / sliced_threads=0 / nr=0 / decimate=1 / interlaced=0 / bluray_compat=0 / constrained_intra=0 / bframes=7 / b_pyramid=2 / b_adapt=2 / b_bias=0 / direct=3 / weightb=1 / open_gop=0 / weightp=2 / keyint=250 / keyint_min=25 / scenecut=40 / intra_refresh=0 / rc=2pass / mbtree=0 / bitrate=5430 / ratetol=1.0 / qcomp=0.60 / qpmin=0 / qpmax=69 / qpstep=4 / cplxblur=20.0 / qblur=0.5 / ip_ratio=1.40 / pb_ratio=1.30 / aq=2:1.00
Language : English
Default : Yes
Forced : No
Audio #1
ID : 2
Format : AC-3
Format/Info : Audio Coding 3
Mode extension : CM (complete main)
Format settings, Endianness : Big
Codec ID : A_AC3
Duration : 1h 41mn
Bit rate mode : Constant
Bit rate : 448 Kbps
Channel(s) : 6 channels
Channel positions : Front: L C R, Side: L R, LFE
Sampling rate : 48.0 KHz
Bit depth : 16 bits
Compression mode : Lossy
Stream size : 327 MiB (7%)
Title : Dub
Language : Russian
Default : Yes
Forced : No
Audio #2
ID : 3
Format : AC-3
Format/Info : Audio Coding 3
Mode extension : CM (complete main)
Format settings, Endianness : Big
Codec ID : A_AC3
Duration : 1h 41mn
Bit rate mode : Constant
Bit rate : 640 Kbps
Channel(s) : 6 channels
Channel positions : Front: L C R, Side: L R, LFE
Sampling rate : 48.0 KHz
Bit depth : 16 bits
Compression mode : Lossy
Stream size : 467 MiB (10%)
Title : Eng
Language : English
Default : No
Forced : No
Text #1
ID : 4
Format : UTF-8
Codec ID : S_TEXT/UTF8
Codec ID/Info : UTF-8 Plain Text
Title : full
Language : Russian
Default : No
Forced : No
Text #2
ID : 5
Format : UTF-8
Codec ID : S_TEXT/UTF8
Codec ID/Info : UTF-8 Plain Text
Title : full
Language : English
Default : No
Forced : No
Menu
00:00:00.000 : :Chapter 01
00:03:27.999 : :Chapter 02
00:05:20.695 : :Chapter 03
00:07:46.007 : :Chapter 04
00:10:16.032 : :Chapter 05
00:13:16.337 : :Chapter 06
00:16:59.059 : :Chapter 07
00:20:01.700 : :Chapter 08
00:23:43.255 : :Chapter 09
00:27:14.466 : :Chapter 10
00:29:21.468 : :Chapter 11
00:33:41.936 : :Chapter 12
00:37:05.473 : :Chapter 13
00:39:06.969 : :Chapter 14
00:40:59.165 : :Chapter 15
00:45:03.992 : :Chapter 16
00:47:16.625 : :Chapter 17
00:51:51.525 : :Chapter 18
00:54:35.730 : :Chapter 19
00:56:15.997 : :Chapter 20
01:00:33.171 : :Chapter 21
01:04:28.781 : :Chapter 22
01:06:34.949 : :Chapter 23
01:09:44.138 : :Chapter 24
01:14:01.854 : :Chapter 25
01:18:35.127 : :Chapter 26
01:21:07.153 : :Chapter 27
01:22:55.053 : :Chapter 28
01:24:30.065 : :Chapter 29
01:28:04.654 : :Chapter 30
01:31:03.499 : :Chapter 31
01:32:21.994 : :Chapter 32
-


Последний раз редактировалось: Kryl (2015-03-09 00:47), всего редактировалось 2 раз(а)

[Цитировать]
mimok

неуспел

[Цитировать]
Тимур Артыков

Админы, вы проверяли этот мульт на её качество? Лагает

[Цитировать]
ZHz

2117Админы, вы проверяли этот мульт на её качество? Лагает
это рип от энви, у него ничего не лагает, сколько рипов я его не качал
 
Показать сообщения:    

Текущее время: 25-Май 00:28

Часовой пояс: UTC + 3


Вы не можете начинать темы
Вы не можете отвечать на сообщения
Вы не можете редактировать свои сообщения
Вы не можете удалять свои сообщения
Вы не можете голосовать в опросах
Вы не можете прикреплять файлы к сообщениям
Вы не можете скачивать файлы