[Цитировать]
Kryl

«Трагедия рождает героев»- Информация о фильме
Название: К-19
Оригинальное название: K-19: The Widowmaker
Год выхода: 2002
Жанр: Триллер, драма, военный, история
Режиссер: Кэтрин Бигелоу
Сценарий: Кристофер Кайл, Луис Наура
Продюсер: Кэтрин Бигелоу, Эдвард С. Фельдман, Сигуржон Сигватссон, ...
В ролях: Харрисон Форд, Лиам Нисон, Питер Сарсгаард, Сэм Спруэлл, Тим Вудворд, Стив Николсон, Питер Стеббингс, Лекс Шрэпнел, Джон Шрэпнел, Лев Прыгунов, Равиль Исянов, Джей Джей Филд
--О фильме:
Фильм основан на реальных событиях, произошедших с первой атомной советской подводной лодкой, которая потерпела аварию из-за неполадок в атомном реакторе в 1961 году. К-19 — это зримое свидетельство героизма русских моряков, которые служили на этой подводной лодке.
Фильм демонстрирует героизм капитана Алексея Вострикова, который в разгар холодной войны берет на себя командование атомной подводной лодкой К-19 вместо ее первого капитана Михаила Поленина. Миссия Вострикова — быстро подготовить подлодку к погружению, чего бы это ни стоило.
Но Востриков, Поленин и члены экипажа К-19 не могли себе вообразить всего, что от них ожидалось. Они не могли представить, какой ценой обойдется для них стремительность подготовки субмарины к погружению…
- - Страна: Великобритания, Германия, США, Канада
Продолжительность: 01:38:29
-- Файл
Кодек: MPEG4/ISO/AVC H.264
Формат: MKV
Качество: BDRip-AVC 60fps
Видео: 1024x432 (2.35:1) | 59.940 fps | ~3.6 Мбит/сек
Аудио: AC3 | 5.1 | 48 kHz | 448 kbps | 16 bit | Дубляж |
Субтитры: Русские (Полные), английские (Полные)

MedifInfo

Video
ID : 1
Format : AVC
Format/Info : Advanced Video Codec
Format profile : High@L4.1
Format settings, CABAC : Yes
Format settings, ReFrames : 4 frames
Codec ID : V_MPEG4/ISO/AVC
Duration : 2h 18mn
Bit rate : 3 650 Kbps
Width : 1 024 pixels
Height : 432 pixels
Display aspect ratio : 2.35:1
Frame rate : 59.940 fps
Color space : YUV
Chroma subsampling : 4:2:0
Bit depth : 8 bits
Scan type : Progressive
Bits/(Pixel*Frame) : 0.138
Stream size : 3.45 GiB (87%)
Writing library : x264 core 146 r2538 121396c
Encoding settings : cabac=1 / ref=3 / deblock=1:0:0 / analyse=0x3:0x113 / me=umh / subme=9 / psy=1 / psy_rd=1.00:0.10 / mixed_ref=1 / me_range=32 / chroma_me=1 / trellis=2 / 8x8dct=1 / cqm=0 / deadzone=21,11 / fast_pskip=0 / chroma_qp_offset=-3 / threads=12 / lookahead_threads=3 / sliced_threads=0 / nr=0 / decimate=1 / interlaced=0 / bluray_compat=0 / constrained_intra=0 / bframes=16 / b_pyramid=2 / b_adapt=2 / b_bias=0 / direct=3 / weightb=1 / open_gop=0 / weightp=2 / keyint=600 / keyint_min=59 / scenecut=40 / intra_refresh=0 / rc_lookahead=40 / rc=2pass / mbtree=0 / bitrate=3650 / ratetol=1.0 / qcomp=0.60 / qpmin=0 / qpmax=69 / qpstep=4 / cplxblur=20.0 / qblur=0.5 / vbv_maxrate=50000 / vbv_bufsize=62500 / nal_hrd=none / filler=0 / ip_ratio=1.40 / pb_ratio=1.30 / aq=1:1.00
Language : English
Default : Yes
Forced : No
Audio
ID : 2
Format : AC-3
Format/Info : Audio Coding 3
Mode extension : CM (complete main)
Codec ID : A_AC3
Duration : 2h 18mn
Bit rate mode : Constant
Bit rate : 448 Kbps
Channel(s) : 6 channels
Channel positions : Front: L C R, Side: L R, LFE
Sampling rate : 48.0 KHz
Bit depth : 16 bits
Compression mode : Lossy
Stream size : 443 MiB (11%)
Title : Дубляж
Language : Russian
Default : Yes
Forced : No
Text #1
ID : 3
Format : UTF-8
Codec ID : S_TEXT/UTF8
Codec ID/Info : UTF-8 Plain Text
Title : Полные
Language : Russian
Default : No
Forced : No
Text #2
ID : 4
Format : UTF-8
Codec ID : S_TEXT/UTF8
Codec ID/Info : UTF-8 Plain Text
Title : Полные
Language : English
Default : No
Forced : No
Menu
00:00:00.000 : en:00:00:00.000
00:09:01.416 : en:00:09:01.416
00:23:28.449 : en:00:23:28.449
00:30:02.968 : en:00:30:02.968
00:36:44.994 : en:00:36:44.994
00:44:42.847 : en:00:44:42.847
00:49:55.242 : en:00:49:55.242
00:56:44.901 : en:00:56:44.901
01:03:18.253 : en:01:03:18.253
01:09:37.840 : en:01:09:37.840
01:26:18.215 : en:01:26:18.215
01:35:12.790 : en:01:35:12.790
01:45:33.994 : en:01:45:33.994
01:54:40.165 : en:01:54:40.165
02:03:27.317 : en:02:03:27.317
02:09:20.670 : en:02:09:20.670
 
Показать сообщения:    

Текущее время: 28-Май 00:19

Часовой пояс: UTC + 3


Вы не можете начинать темы
Вы не можете отвечать на сообщения
Вы не можете редактировать свои сообщения
Вы не можете удалять свои сообщения
Вы не можете голосовать в опросах
Вы не можете прикреплять файлы к сообщениям
Вы не можете скачивать файлы