Taylor Swift - …Ready For It? (2017) WEBRip 1080p | 60 fps Luis Fonsi - Despacito ft. Daddy Yankee (2017) WEBRip 1080p | 60 fps Dan Balan - Chica Bomb (2010) WEBRip 1080p | 60 fps Serebro - В Космосе (2017) Full HD 1080p | 60 fps Shakira - Chantaje ft. Maluma (2016) Full HD 1080p | 60 fps Serebro - Пройдёт (Mood Video) (2017) Full HD 1080p | 60 fps Britney Spears - Toxic (2004) HDTVRip 1080p | 60 fps Katy Perry - Bon Appétit ft. Migos (2017) Full HD 1080p | 60 fps
  1. Стаж:
    3 года 6 месяцев
    Сообщений:
    2290
    Пол:
    Мужской
    -Justin Timberlake - TKO (2013) Full HD 1080p | 60 fps -Информация о Клипе
    Исполнитель: Justin Timberlake
    Название: TKO
    Год выхода: 2013
    Продолжительность: 00:07:14
    О клипе:
    Чувства остыли, осталась привычка. Но к какому решению может прийти тот, кому больно. Герой Justin Timberlake считал, что девушка его поймет и любовь вернется. Увы, его подружка была другого мнение о происходившем между ними. TKO - это даже не клип, а скорее фильм, в котором женщина не смогла смириться с потерей любви своего мужчины.
    -Файл
    Кодек: MPEG4/ISO/AVC/ H.264
    Формат: MKV
    Качество: Master 1080p
    Видео : 1920 x 820 (2.341) at 59,940 fps 20.0 Мбит/сек
    Аудио 1 : AC-3 | 640 Кбит/сек | 48.0 KHz | 2.0 channels
    Аудио 2 : DTS | 1413 Кбит/сек | 48.0 KHz | 2.0 channels

    MI

    Видео
    Идентификатор : 1
    Формат : AVC
    Формат/Информация : Advanced Video Codec
    Профиль формата : High@L4.2
    Параметр CABAC формата : Да
    Параметр ReFrames формата : 3 кадра
    Идентификатор кодека : V_MPEG4/ISO/AVC
    Продолжительность : 7 м. 15 с.
    Вид битрейта : Переменный
    Битрейт : 17,8 Мбит/сек
    Максимальный битрейт : 20,0 Мбит/сек
    Ширина : 1920 пикселей
    Высота : 820 пикселей
    Соотношение сторон : 2,35:1
    Режим частоты кадров : Постоянный
    Частота кадров : 59,880 кадров/сек
    Частота кадров в оригинале : 59,940 кадров/сек
    Стандарт вещания : PAL
    Цветовое пространство : YUV
    Субдискретизация насыщенности : 4:2:0
    Битовая глубина : 8 бит
    Тип развёртки : Прогрессивная
    Бит/(Пиксели*Кадры) : 0.189
    Размер потока : 924 Мбайт (88%)
    Заголовок : www.60-fps.org
    Язык : English
    Default : Да
    Forced : Нет
    Основные цвета : BT.709
    Характеристики трансфера : BT.709
    Коэффициенты матрицы : BT.709
    colour_range : Limited
    Аудио #1
    Идентификатор : 2
    Формат : AC-3
    Формат/Информация : Audio Coding 3
    Расширение режима : CM (complete main)
    Параметр Endianness формата : Big
    Идентификатор кодека : A_AC3
    Продолжительность : 7 м. 15 с.
    Вид битрейта : Постоянный
    Битрейт : 640 Кбит/сек
    Каналы : 2 канала
    Расположение каналов : Front: L R
    Частота : 48,0 КГц
    Битовая глубина : 16 бит
    Метод сжатия : С потерями
    Размер потока : 33,2 Мбайт (3%)
    Заголовок : AC3
    Язык : English
    Default : Да
    Forced : Нет
    DURATION : 00:07:15.104000000
    NUMBER_OF_FRAMES : 40791
    NUMBER_OF_BYTES : 76850244
    _STATISTICS_WRITING_APP : mkvmerge v7.6.0 ('Garden of Dreams') 32bit built on Feb 8 2015 12:51:39
    _STATISTICS_WRITING_DATE_UTC : 2015-12-04 20:37:23
    _STATISTICS_TAGS : BPS DURATION NUMBER_OF_FRAMES NUMBER_OF_BYTES
    Аудио #2
    Идентификатор : 3
    Формат : DTS
    Формат/Информация : Digital Theater Systems
    Режим : 16
    Параметр Endianness формата : Big
    Идентификатор кодека : A_DTS
    Продолжительность : 7 м. 15 с.
    Вид битрейта : Постоянный
    Битрейт : 1413 Кбит/сек
    Каналы : 2 канала
    Расположение каналов : Front: L R
    Частота : 48,0 КГц
    Битовая глубина : 16 бит
    Метод сжатия : С потерями
    Задержка видео : 83 мс.
    Размер потока : 73,3 Мбайт (7%)
    Заголовок : DTS
    Язык : English
    Default : Нет
    Forced : Нет

    Релиз подготовлен 60 - fps



Вы не можете начинать темы
Вы не можете отвечать на сообщения
Вы не можете редактировать свои сообщения
Вы не можете удалять свои сообщения
Вы не можете голосовать в опросах
Вы не можете прикреплять файлы к сообщениям
Вы не можете скачивать файлы