Taylor Swift - …Ready For It? (2017) WEBRip 1080p | 60 fps Luis Fonsi - Despacito ft. Daddy Yankee (2017) WEBRip 1080p | 60 fps Dan Balan - Chica Bomb (2010) WEBRip 1080p | 60 fps Serebro - В Космосе (2017) Full HD 1080p | 60 fps Shakira - Chantaje ft. Maluma (2016) Full HD 1080p | 60 fps Serebro - Пройдёт (Mood Video) (2017) Full HD 1080p | 60 fps Britney Spears - Toxic (2004) HDTVRip 1080p | 60 fps Katy Perry - Bon Appétit ft. Migos (2017) Full HD 1080p | 60 fps
  1. Стаж:
    3 года 6 месяцев
    Сообщений:
    2290
    Пол:
    Мужской
    -- Музыка Justin Bieber - I'll Show You (2015) HD 1080p | 60 fps Музыка --Информация о Клипе
    Исполнитель: Justin Bieber
    Название: I'll Show You
    Год выхода: 2015
    Продолжительность: 00:03:20-Файл
    Кодек: MPEG4/ISO/AVC/ H.264
    Формат: MKV
    Качество: HD 1080p | 60 fps
    Видео: 1920 x 1080 (1.778)| 59.940 fps 10.0 Мбит/сек
    Аудио: MP3 | 320 Кбит/сек | 44.1 KHz | 2 channels | 16 bits

    MediaInfo

    Видео
    Идентификатор : 1
    Формат : AVC
    Формат/Информация : Advanced Video Codec
    Профиль формата : High@L4.2
    Параметр CABAC формата : Да
    Параметр ReFrames формата : 3 кадра
    Параметр GOP формата : M=3, N=72
    Идентификатор кодека : V_MPEG4/ISO/AVC
    Продолжительность : 3 м. 20 с.
    Вид битрейта : Переменный
    Битрейт : 9358 Кбит/сек
    Максимальный битрейт : 10000 Кбит/сек
    Ширина : 1920 пикселей
    Высота : 1080 пикселей
    Соотношение сторон : 16:9
    Режим частоты кадров : Постоянный
    Частота кадров : 59,880 кадров/сек
    Частота кадров в оригинале : 59,940 кадров/сек
    Стандарт вещания : NTSC
    Цветовое пространство : YUV
    Субдискретизация насыщенности : 4:2:0
    Битовая глубина : 8 бит
    Тип развёртки : Прогрессивная
    Бит/(Пиксели*Кадры) : 0.075
    Размер потока : 224 Мбайт (95%)
    Заголовок : www.60-fps.org
    Язык : English
    Default : Да
    Forced : Нет
    Основные цвета : BT.709
    Характеристики трансфера : BT.709
    Коэффициенты матрицы : BT.709
    colour_range : Limited
    Аудио
    Идентификатор : 2
    Формат : MPEG Audio
    Версия формата : Version 1
    Профиль формата : Layer 3
    Режим : Joint stereo
    Идентификатор кодека : A_MPEG/L3
    Идентификатор кодека/Подсказка : MP3
    Продолжительность : 3 м. 20 с.
    Вид битрейта : Постоянный
    Битрейт : 320 Кбит/сек
    Каналы : 2 канала
    Частота : 44,1 КГц
    Метод сжатия : С потерями
    Размер потока : 7,66 Мбайт (3%)
    Заголовок : MP3
    Библиотека кодирования : LAME3.99.5
    Default : Да
    Forced : Нет

    Релиз подготовлен 60 - fps



Вы не можете начинать темы
Вы не можете отвечать на сообщения
Вы не можете редактировать свои сообщения
Вы не можете удалять свои сообщения
Вы не можете голосовать в опросах
Вы не можете прикреплять файлы к сообщениям
Вы не можете скачивать файлы