Luis Fonsi - Despacito ft. Daddy Yankee (2017) WEBRip 1080p | 60 fps Kylie Minogue - All The Lovers (2010) BDRip 1080p | 60 fps Michael Jackson - Smooth Criminal (2010) BDRip 1080p | 60 fps Бьянка - Пошли вы в жопу (2016) Full HD 1080p | 60 fps Dan Balan - Lendo Calendo (ft.Tany Vander & Brasco) (2013) Full HD 1080p | 60 fps Music Video Collection / The best Guitars 2,5 (2016) BDRip 1080p | 60 fps Dr. Dre - I Need A Doctor (Explicit) ft. Eminem, Skylar Grey (2011) WEBRip 720p | 60 fps Scorpions - Return to Forever (Tour Edition) (2016 г.) DVDRip | 60 fps
  1. Longevity:
    6 years 8 months
    Posts:
    2414
    Gender:
    Male
    -- Музыка Justin Bieber - I'll Show You (2015) HD 1080p | 60 fps Музыка --Информация о Клипе
    Исполнитель: Justin Bieber
    Название: I'll Show You
    Год выхода: 2015
    Продолжительность: 00:03:20-Файл
    Кодек: MPEG4/ISO/AVC/ H.264
    Формат: MKV
    Качество: HD 1080p | 60 fps
    Видео: 1920 x 1080 (1.778)| 59.940 fps 15.0 Мбит/сек
    Аудио: AC3 | 640 Кбит/сек | 44.1 KHz | 2 channels | 16 bits

    MediaInfo

    Общее
    Уникальный идентификатор : 182072163459625556446169737870274146906 (0x88F9D2BAEABC0CDFBB2F281F8357325A)
    Полное имя : H:\Clips\Justin Bieber - I'll Show You.2015.1080p.60 fps.mkv
    Формат : Matroska
    Версия формата : Version 2
    Размер файла : 373 Мбайт
    Продолжительность : 3 м. 20 с.
    Общий поток : 15,6 Мбит/сек
    Дата кодирования : UTC 2021-02-26 21:16:05
    Программа кодирования : mkvmerge v5.8.0 ('No Sleep / Pillow') built on Sep 2 2012 15:37:04
    Библиотека кодирования : libebml v1.2.3 + libmatroska v1.3.0
    Видео
    Идентификатор : 1
    Формат : AVC
    Формат/Информация : Advanced Video Codec
    Профиль формата : [email protected]
    Параметр CABAC формата : Да
    Параметр ReFrames формата : 4 кадра
    Режим смешивания : Header stripping
    Идентификатор кодека : V_MPEG4/ISO/AVC
    Продолжительность : 3 м. 20 с.
    Битрейт : 15,0 Мбит/сек
    Ширина : 1920 пикселей
    Высота : 1080 пикселей
    Соотношение сторон : 16:9
    Режим частоты кадров : Постоянный
    Частота кадров : 59,940 (60000/1001) кадров/сек
    Цветовое пространство : YUV
    Субдискретизация насыщенности : 4:2:0
    Битовая глубина : 8 бит
    Тип развёртки : Прогрессивная
    Бит/(Пиксели*Кадры) : 0.121
    Размер потока : 350 Мбайт (94%)
    Библиотека кодирования : x264 core 146 r2538 121396c
    Настройки программы : cabac=1 / ref=4 / deblock=1:0:0 / analyse=0x3:0x113 / me=umh / subme=8 / psy=1 / psy_rd=1.00:0.25 / mixed_ref=1 / me_range=16 / chroma_me=1 / trellis=1 / 8x8dct=1 / cqm=0 / deadzone=6,6 / fast_pskip=1 / chroma_qp_offset=-4 / threads=12 / lookahead_threads=3 / sliced_threads=0 / nr=0 / decimate=0 / interlaced=0 / bluray_compat=0 / constrained_intra=0 / bframes=3 / b_pyramid=2 / b_adapt=2 / b_bias=0 / direct=3 / weightb=1 / open_gop=0 / weightp=2 / keyint=600 / keyint_min=60 / scenecut=40 / intra_refresh=0 / rc_lookahead=50 / rc=2pass / mbtree=1 / bitrate=15000 / ratetol=1.0 / qcomp=0.80 / qpmin=0 / qpmax=69 / qpstep=4 / cplxblur=20.0 / qblur=0.5 / vbv_maxrate=50000 / vbv_bufsize=50000 / nal_hrd=none / filler=0 / ip_ratio=1.10 / aq=1:0.50
    Язык : English
    Default : Да
    Forced : Нет
    Аудио
    Идентификатор : 2
    Формат : AC-3
    Формат/Информация : Audio Coding 3
    Расширение режима : CM (complete main)
    Параметр Endianness формата : Big
    Режим смешивания : Header stripping
    Идентификатор кодека : A_AC3
    Продолжительность : 3 м. 20 с.
    Вид битрейта : Постоянный
    Битрейт : 640 Кбит/сек
    Каналы : 2 канала
    Расположение каналов : Front: L R
    Частота : 44,1 КГц
    Частота кадров : 28,711 кадров/сек (1536 spf)
    Битовая глубина : 16 бит
    Метод сжатия : С потерями
    Размер потока : 15,3 Мбайт (4%)
    Default : Да
    Forced : Нет

    Release was prepared by 60-fps.org

  2. Longevity:
    3 years 8 months
    Posts:
    2
    Gender:
    Unknown
    мертвый торрент, пожалуйста, восстановите
    26-Feb-2021 23:22 (after 4 years 11 months)
  3. Longevity:
    4 years 4 months
    Posts:
    244
    Gender:
    Male
    12336мертвый торрент, пожалуйста, восстановите
    Обновлен. Приятного просмотра!
    27-Feb-2021 00:19 (after 56 minutes)


You cannot post new topics in this forum
You cannot reply to topics in this forum
You cannot edit your posts in this forum
You cannot delete your posts in this forum
You cannot vote in polls in this forum
You cannot attach files in this forum
You cannot download files in this forum