Планета Земля 2 / Planet Earth II (2016) BDRip 1080p | 60 fps Заколдованное королевство / Enchanted Kingdom (2013) BDRip 720p | 60fps Музыкальный камин / HDScape: Fireplace - Visions Of Tranquility (2008) BDRip 1080p | 60 fps Голубая бездна (Глубина) / Deep Blue (2003) BDRip 1080p | 60 fps Живые Пейзажи. Красивейшие Уголки Земли / Living Landscapes. The World's Most Beautiful Places (2006) BDRip 720p | 60 fps Жизненные циклы / Life Cycles (2010) BDRip 720p | 60 fps Пейзажи времени / TimeScapes (2012) BDRip 1080p | 60 fps Лунный свет: Путешествие / Lichtmond: The Journey (2016) BDRip 720p | 60fps
  1. Стаж:
    3 года 6 месяцев
    Сообщений:
    2288
    Пол:
    Мужской
    Жизненные циклы / Life Cycles (2010) BDRip 720p | 60 fps- Информация
    Название: Жизненные циклы
    Оригинальное название: Life Cycles
    Год выхода: 1985
    Жанр: документальный, спорт
    Режиссер: Дерек Франковски, Райан Гибб
    Сценарий: Дерек Франковски, Райан Гибб
    В ролях: Graham Agassiz, Mike Hopkins, Matt Hunter, Cam McCaul, Cameron McCaul, Riley McIntosh, Evan Schwartz, Brandon Semenuk, Thomas Vanderham, Graham Tracey (Narrator)
    --Сюжет:
    «Жизненые циклы» рассказывает захватывающую историю велосипедов от «создания» до самой «смерти». Визуально ошеломляющее путешествие по пустыням, лесам, полям, заводам и городам.- - Страна: Канада
    Продолжительность: 01:56:00

    Файл
    Кодек: MPEG4/ISO/AVC H.264
    Формат: MKV
    Качество: BDRip 720p (исходник Blu-ray Disc)
    Видео: 1280x640 | 59.940 fps | 6.4 Мбит/сек
    Аудио 1: AC3 | 5.1 | 48 kHz | 640 kbps | 16 bit | Одноголосый закадровый, Омикрон "Е.Малуха" |
    Аудио 2: AC3 | 5.1 | 48 kHz | 640 kbps | 16 bit | Eng |
    Субтитры: Русские | Полные

    MedifInfo

    Video
    ID : 1
    Format : AVC
    Format/Info : Advanced Video Codec
    Format profile : High@L4.1
    Format settings, CABAC : Yes
    Format settings, ReFrames : 9 frames
    Codec ID : V_MPEG4/ISO/AVC
    Duration : 47mn 1s
    Bit rate : 6 461 Kbps
    Width : 1 280 pixels
    Height : 640 pixels
    Display aspect ratio : 2.000
    Frame rate mode : Constant
    Frame rate : 59.880 fps
    Original frame rate : 59.940 fps
    Color space : YUV
    Chroma subsampling : 4:2:0
    Bit depth : 8 bits
    Scan type : Progressive
    Bits/(Pixel*Frame) : 0.132
    Stream size : 2.12 GiB (82%)
    Title : Жизненные циклы.(2010).BDRip.720p.[envy].[60fps]
    Writing library : x264 core 146 r2538 121396c
    Encoding settings : cabac=1 / ref=9 / deblock=1:0:0 / analyse=0x3:0x113 / me=umh / subme=10 / psy=1 / psy_rd=1.00:0.00 / mixed_ref=1 / me_range=24 / chroma_me=1 / trellis=2 / 8x8dct=1 / cqm=0 / deadzone=21,11 / fast_pskip=0 / chroma_qp_offset=-2 / threads=12 / lookahead_threads=1 / sliced_threads=0 / nr=0 / decimate=1 / interlaced=0 / bluray_compat=0 / constrained_intra=0 / bframes=5 / b_pyramid=2 / b_adapt=2 / b_bias=0 / direct=3 / weightb=1 / open_gop=0 / weightp=2 / keyint=250 / keyint_min=25 / scenecut=40 / intra_refresh=0 / rc_lookahead=40 / rc=crf / mbtree=0 / crf=18.0 / qcomp=0.60 / qpmin=0 / qpmax=69 / qpstep=4 / vbv_maxrate=14000 / vbv_bufsize=14000 / crf_max=0.0 / nal_hrd=none / filler=0 / ip_ratio=1.40 / pb_ratio=1.30 / aq=3:1.00
    Language : English
    Default : Yes
    Forced : No
    Audio #1
    ID : 2
    Format : AC-3
    Format/Info : Audio Coding 3
    Mode extension : CM (complete main)
    Format settings, Endianness : Big
    Codec ID : A_AC3
    Duration : 47mn 1s
    Bit rate mode : Constant
    Bit rate : 640 Kbps
    Channel(s) : 6 channels
    Channel positions : Front: L C R, Side: L R, LFE
    Sampling rate : 48.0 KHz
    Compression mode : Lossy
    Stream size : 215 MiB (8%)
    Title : Omikron E.Maluha
    Language : Russian
    Default : Yes
    Forced : No
    Audio #2
    ID : 3
    Format : AC-3
    Format/Info : Audio Coding 3
    Mode extension : CM (complete main)
    Format settings, Endianness : Big
    Codec ID : A_AC3
    Duration : 47mn 1s
    Bit rate mode : Constant
    Bit rate : 640 Kbps
    Channel(s) : 6 channels
    Channel positions : Front: L C R, Side: L R, LFE
    Sampling rate : 48.0 KHz
    Compression mode : Lossy
    Stream size : 215 MiB (8%)
    Title : Eng
    Language : English
    Default : No
    Forced : No
    Text
    ID : 4
    Format : UTF-8
    Codec ID : S_TEXT/UTF8
    Codec ID/Info : UTF-8 Plain Text
    Title : Rus full
    Language : Russian
    Default : No
    Forced : No
    Menu
    00:00:00.000 : :Chapter 01
    00:01:30.340 : :Chapter 02
    00:03:27.248 : :Chapter 03
    00:06:24.425 : :Chapter 04
    00:10:00.891 : :Chapter 05
    00:12:31.208 : :Chapter 06
    00:16:52.845 : :Chapter 07
    00:18:54.800 : :Chapter 08
    00:20:43.951 : :Chapter 09
    00:24:59.164 : :Chapter 10
    00:26:50.775 : :Chapter 11
    00:32:35.036 : :Chapter 12
    00:34:47.835 : :Chapter 13
    00:39:46.467 : :Chapter 14
    00:41:03.961 : :Chapter 15
    00:43:37.990 : :Chapter 16
    00:46:57.981 : :Chapter 17


Вы не можете начинать темы
Вы не можете отвечать на сообщения
Вы не можете редактировать свои сообщения
Вы не можете удалять свои сообщения
Вы не можете голосовать в опросах
Вы не можете прикреплять файлы к сообщениям
Вы не можете скачивать файлы