Планета Земля 2 / Planet Earth II (2016) BDRip 1080p | 60 fps Заколдованное королевство / Enchanted Kingdom (2013) BDRip 720p | 60fps В краю муссонов / Wonders of the Monsoon (2014) BDRip 1080p | 60 fps Лунный свет 3: Дни вечности / Lichtmond 3: Days of Eternity (2014) BDRip 720p | 60fps Лунный свет 2: Вселенная света / Lichtmond 2: Universe of Light (2012) BDRip 720p | 60fps Лунный свет / Lichtmond (2010) BDRip 720p | 60fps Голубая бездна (Глубина) / Deep Blue (2003) BDRip 1080p | 60 fps Пейзажи времени / TimeScapes (2012) BDRip 1080p | 60 fps
  1. ZHz

    Longevity:
    4 years 8 months
    Posts:
    186
    Gender:
    Male
    Название: Живые Пейзажи. Красивейшие Уголки Земли
    Оригинальное название: Living Landscapes. The World's Most Beautiful Places
    Год выпуска: 2006
    Жанр: Видовой
    Продолжительность: 01:17:03
    Перевод: Не требуется (музыкальное сопровождение)
    Режиссер / Телекомпания: Майкл Хьюман / Studio HDenvironments--СЭМПЛ
    Кодек: AVC
    Формат: MKV
    Качество: BDRip 720p
    Видео: 1276x704, 59.940 fps, 6560 Kbps
    Аудио:[музыка] AC3, 5.1 ch, 48.0 kHz, 448 kbps

    MediaInfo

    General
    Unique ID : 242732916112529800670743078102089684911 (0xB69CA8BEE74914E3B4FAAFB4C82557AF)
    Complete name : J:\60FPS\Живые пейзажи. Красивейшие уголки Земли\Живые пейзажи. Красивейшие уголки Земли [60FPS by ZHz].mkv
    Format : Matroska
    Format version : Version 4 / Version 2
    File size : 3.85 GiB
    Duration : 1h 17mn
    Overall bit rate : 7 150 Kbps
    Encoded date : UTC 2014-12-30 10:51:50
    Writing application : mkvmerge v7.3.0 ('Nouages') 64bit built on Oct 22 2014 18:53:34
    Writing library : libebml v1.3.0 + libmatroska v1.4.1
    DURATION : 01:17:03.680000000
    NUMBER_OF_FRAMES : 144490
    NUMBER_OF_BYTES : 258926080
    _STATISTICS_WRITING_APP : mkvmerge v7.3.0 ('Nouages') 64bit built on Oct 22 2014 18:53:34
    _STATISTICS_WRITING_DATE_UTC : 2014-12-30 10:51:50
    _STATISTICS_TAGS : BPS DURATION NUMBER_OF_FRAMES NUMBER_OF_BYTES
    Video
    ID : 1
    Format : AVC
    Format/Info : Advanced Video Codec
    Format profile : High@L4.1
    Format settings, CABAC : Yes
    Format settings, ReFrames : 6 frames
    Codec ID : V_MPEG4/ISO/AVC
    Duration : 1h 17mn
    Bit rate : 6 560 Kbps
    Width : 1 276 pixels
    Height : 704 pixels
    Display aspect ratio : 16:9
    Frame rate mode : Constant
    Frame rate : 59.880 fps
    Original frame rate : 59.940 fps
    Color space : YUV
    Chroma subsampling : 4:2:0
    Bit depth : 8 bits
    Scan type : Progressive
    Bits/(Pixel*Frame) : 0.122
    Stream size : 3.53 GiB (92%)
    Writing library : x264 core 130 r2273 b3065e6
    Encoding settings : cabac=1 / ref=6 / deblock=1:-1:-1 / analyse=0x3:0x111 / me=esa / subme=7 / psy=1 / psy_rd=1.00:0.15 / mixed_ref=1 / me_range=4 / chroma_me=1 / trellis=2 / 8x8dct=1 / cqm=0 / deadzone=21,11 / fast_pskip=1 / chroma_qp_offset=-3 / threads=12 / lookahead_threads=3 / sliced_threads=0 / nr=0 / decimate=1 / interlaced=0 / bluray_compat=0 / constrained_intra=0 / bframes=4 / b_pyramid=2 / b_adapt=2 / b_bias=0 / direct=1 / weightb=1 / open_gop=0 / weightp=2 / keyint=250 / keyint_min=25 / scenecut=40 / intra_refresh=0 / rc_lookahead=50 / rc=crf / mbtree=1 / crf=16.7 / qcomp=0.60 / qpmin=0 / qpmax=69 / qpstep=4 / vbv_maxrate=50000 / vbv_bufsize=50000 / crf_max=0.0 / nal_hrd=none / ip_ratio=1.40 / aq=1:1.00
    Language : English
    Default : Yes
    Forced : No
    DURATION : 01:17:02.706000000
    NUMBER_OF_FRAMES : 277085
    NUMBER_OF_BYTES : 3871126444
    _STATISTICS_WRITING_APP : mkvmerge v7.3.0 ('Nouages') 64bit built on Oct 22 2014 18:53:34
    _STATISTICS_WRITING_DATE_UTC : 2014-12-30 10:51:50
    _STATISTICS_TAGS : BPS DURATION NUMBER_OF_FRAMES NUMBER_OF_BYTES
    Audio
    ID : 2
    Format : AC-3
    Format/Info : Audio Coding 3
    Mode extension : CM (complete main)
    Format settings, Endianness : Big
    Codec ID : A_AC3
    Duration : 1h 17mn
    Bit rate mode : Constant
    Bit rate : 448 Kbps
    Channel(s) : 6 channels
    Channel positions : Front: L C R, Side: L R, LFE
    Sampling rate : 48.0 KHz
    Bit depth : 16 bits
    Compression mode : Lossy
    Stream size : 247 MiB (6%)
    Default : Yes
    Forced : No

    Скриншоты

  2. Longevity:
    2 years 8 months
    Posts:
    24
    Gender:
    Unknown
    Да Мир
    23-Sep-2017 18:56 (after 2 years 8 months)
  3. Longevity:
    2 years 8 months
    Posts:
    24
    Gender:
    Unknown
    встаньте на раздачу плизз Молюсь
    17-Oct-2017 15:21 (after 23 days)


You cannot post new topics in this forum
You cannot reply to topics in this forum
You cannot edit your posts in this forum
You cannot delete your posts in this forum
You cannot vote in polls in this forum
You cannot attach files in this forum
You cannot download files in this forum