«Чемпионами не рождаются, их собирают»- Информация
Название: Живая сталь
Оригинальное название: Real Steel
Год выхода: 2011
Жанр: фантастика, боевик, семейный
Режиссер: Шон Леви
Сценарий: Джон Гэйтинс, Дэн Гилрой, Джереми Левин
Продюсер: Шон Леви, Сьюзен Монтфорд, Дон Мерфи
В ролях: Хью Джекман, Дакота Гойо, Эванджелин Лилли, Энтони Маки, Кевин Дюран, Хоуп Дэвис, Джеймс Ребхорн, Карл Йун, Ольга Фонда, Джон Гэйтинс
--Сюжет:

События фильма происходят в будущем, где бокс запрещен за негуманностью и заменен боями 2000-фунтовых роботов, управляемых людьми. Бывший боксер, а теперь промоутер, переметнувшийся в Робобокс, решает, что наконец нашел своего чемпиона, когда ему попадается выбракованный, но очень способный робот. Одновременно на жизненном пути героя возникает 11-летний парень, оказывающийся его сыном. И по мере того, как машина пробивает свой путь к вершине, обретшие друг друга отец и сын учатся дружить.
- - Страна: США, Индия
Продолжительность: 02:06:50

Файл
Кодек: MPEG4/ISO/AVC H.264
Формат: MKV
Качество: BDRip-AVC | 60 fps
Видео: 1024x432 (2.35:1) | 59.940 fps | 3.6 Мбит/сек
Аудио 1: AC3 | 5.1 | 48 kHz | 640 kbps | 16 bit | Дубляж |
Аудио 2: AC3 | 5.1 | 48 kHz | 640 kbps | 16 bit | Украинский |
Аудио 3: AC3 | 5.1 | 48 kHz | 640 kbps | 16 bit | Ю. Сербин (Отдельно в папке) |
Аудио 4: AC3 | 5.1 | 48 kHz | 640 kbps | 16 bit | ENG |
Аудио 4: AC3 | 2.0 | 48 kHz | 192 kbps | 16 bit | Ком. Шон Леви (Отдельно в папке) |
Субтитры: русские (Форсированные), русские (Полные), русские (Комментарии), украинские (Форсированные), украинские (Полные), украинские (Комментарии), английские (Полные)

MedifInfo

Video
ID : 1
Format : AVC
Format/Info : Advanced Video Codec
Format profile : High@L4.1
Format settings, CABAC : Yes
Format settings, ReFrames : 3 frames
Codec ID : V_MPEG4/ISO/AVC
Duration : 2h 6mn
Bit rate mode : Variable
Bit rate : 3 687 Kbps
Maximum bit rate : 5 000 Kbps
Width : 1 024 pixels
Height : 432 pixels
Display aspect ratio : 2.35:1
Frame rate : 60.000 fps
Standard : NTSC
Color space : YUV
Chroma subsampling : 4:2:0
Bit depth : 8 bits
Scan type : Progressive
Bits/(Pixel*Frame) : 0.139
Stream size : 3.27 GiB (84%)
Language : English
Default : Yes
Forced : No
Color primaries : BT.601-6 525, BT.1358 525, BT.1700 NTSC, SMPTE 170M
Transfer characteristics : BT.601-6 525, BT.601-6 625, BT.1358 525, BT.1358 625, BT.1700 NTSC, SMPTE 170M
Matrix coefficients : BT.601-6 525, BT.1358 525, BT.1700 NTSC, SMPTE 170M
Audio
ID : 2
Format : AC-3
Format/Info : Audio Coding 3
Mode extension : CM (complete main)
Codec ID : A_AC3
Duration : 2h 6mn
Bit rate mode : Constant
Bit rate : 640 Kbps
Channel(s) : 6 channels
Channel positions : Front: L C R, Side: L R, LFE
Sampling rate : 48.0 KHz
Bit depth : 16 bits
Compression mode : Lossy
Stream size : 581 MiB (14%)
Title : Дубляж
Language : Russian
Default : Yes
Forced : No
Text #1
ID : 3
Format : UTF-8
Codec ID : S_TEXT/UTF8
Codec ID/Info : UTF-8 Plain Text
Title : Форсированные
Language : Russian
Default : Yes
Forced : No
Text #2
ID : 4
Format : UTF-8
Codec ID : S_TEXT/UTF8
Codec ID/Info : UTF-8 Plain Text
Title : Полные
Language : Russian
Default : No
Forced : No
Text #3
ID : 5
Format : UTF-8
Codec ID : S_TEXT/UTF8
Codec ID/Info : UTF-8 Plain Text
Title : Комментарии
Language : Russian
Default : No
Forced : No
Text #4
ID : 6
Format : UTF-8
Codec ID : S_TEXT/UTF8
Codec ID/Info : UTF-8 Plain Text
Title : Форсированные
Language : Ukrainian
Default : No
Forced : No
Text #5
ID : 7
Format : UTF-8
Codec ID : S_TEXT/UTF8
Codec ID/Info : UTF-8 Plain Text
Title : Полные
Language : Ukrainian
Default : No
Forced : No
Text #6
ID : 8
Format : UTF-8
Codec ID : S_TEXT/UTF8
Codec ID/Info : UTF-8 Plain Text
Title : Комментарии
Language : Ukrainian
Default : No
Forced : No
Text #7
ID : 9
Format : UTF-8
Codec ID : S_TEXT/UTF8
Codec ID/Info : UTF-8 Plain Text
Title : Полные
Language : English
Default : No
Forced : No
Menu
00:00:00.000 : en:Opening Titles
00:03:00.472 : en:Charlie Kenton
00:10:38.304 : en:Wheeling & dealing
00:18:50.546 : en:Noisy Boy Has Arrived
00:24:29.885 : en:Crash Palace
00:34:14.761 : en:Metal Valley
00:41:22.355 : en:Atom
00:48:46.131 : en:He Was Beautiful
00:52:08.709 : en:The Champ Is Here
00:57:15.015 : en:The Zoo
01:05:01.231 : en:Training Atom
01:12:33.974 : en:Climbing The Ranks
01:18:26.994 : en:Twin Cities
01:26:28.517 : en:Fight For Me
01:32:50.773 : en:Go Get Him, Charlie
01:39:19.704 : en:The Mighty Zeus
01:48:22.663 : en:Toe-To-Toe
01:52:26.865 : en:Final Round
01:57:21.868 : en:People's Champion
02:00:50.326 : en:End Credits
[60-fps.org].t1927.torrent
Торрент: Зарегистрирован [ 2016-03-26 21:21 ] · 5AD73DCADE677351DE081EB2C07B131AC8AB11C7

Скачать .torrent

Скачать

30 KB

Статус: проверено
Скачан: 28 раз
Поблагодарили:
Размер: 5,78 GB
 
Похожие Темы
 
Показать сообщения:    

Текущее время: 22-Фев 16:26

Часовой пояс: UTC + 3


Вы не можете начинать темы
Вы не можете отвечать на сообщения
Вы не можете редактировать свои сообщения
Вы не можете удалять свои сообщения
Вы не можете голосовать в опросах
Вы не можете прикреплять файлы к сообщениям
Вы можете скачивать файлы