[Цитировать]
Kryl

Жестокий романс (1984) DVDRip | 60 fps- Информация
Название: Жестокий романс
Год выхода: 1984
Жанр: Драма
Режиссер: Эльдар Рязанов
Директор: Эльдар Рязанов, Александр Островский
Продюсер: Лазарь Милькис, Людмила Захарова
В ролях: Алиса Фрейндлих, Лариса Гузеева, Никита Михалков, Андрей Мягков, Алексей Петренко, Виктор Проскурин, Георгий Бурков, Татьяна Панкова, Борислав Брондуков, Александр Пятков, Юрий Саранцев, Ольга Волкова
--Сюжет:
По мотивам пьесы А.Н.Островского «Бесприданница». В провинциальном городе Бряхимове, стоящем на берегу Волги, живет Харита Игнатьевна Огудалова — обедневшая дворянка, вдова с тремя дочерьми. Несмотря на отсутствие средств, она всё-таки держит открытый дом, не без оснований рассчитывая, что общество красивых и музыкальных барышень привлечет холостых мужчин, которые женятся по любви на бесприданницах. Двух старших дочерей ей удаётся выдать замуж, осталась младшая, красавица Лариса. За ней ухаживает богатый барин Сергей Сергеевич Паратов, который, очевидно, весьма неравнодушен к девушке. Лариса также безумно влюбляется в красавца Паратова, но именно тогда, когда, по мнению Огудаловых и всех их знакомых, Паратов должен сделать предложение, Сергей Сергеевич спешно уезжает из города...- Страна: СССР
Продолжительность: 02:16:54

Файл
Кодек: MPEG4/ISO/AVC H.264
Формат: MKV
Качество: DVDRip | 60 fps
Видео: 716 x 572 (1.252) | 60.000 fps | 5.0 Мбит/сек
Аудио: AC3 | 5.1 | 48 kHz | 448 kbps | 16 bit

MedifInfo

Видео
Идентификатор : 1
Формат : AVC
Формат/Информация : Advanced Video Codec
Профиль формата : High@L4.1
Параметр CABAC формата : Да
Параметр ReFrames формата : 3 кадра
Идентификатор кодека : V_MPEG4/ISO/AVC
Продолжительность : 2 ч. 16 м.
Вид битрейта : Переменный
Битрейт : 4820 Кбит/сек
Максимальный битрейт : 5000 Кбит/сек
Ширина : 716 пикселей
Высота : 572 пикселя
Соотношение сторон : 5:4
Режим частоты кадров : Постоянный
Частота кадров : 60,000 кадров/сек
Стандарт вещания : PAL
Цветовое пространство : YUV
Субдискретизация насыщенности : 4:2:0
Битовая глубина : 8 бит
Тип развёртки : Прогрессивная
Бит/(Пиксели*Кадры) : 0.196
Размер потока : 4,61 Гбайт (90%)
Заголовок : www.60-fps.org
Язык : English
Default : Да
Forced : Нет
Основные цвета : BT.601 NTSC
Характеристики трансфера : BT.601
Коэффициенты матрицы : BT.601
colour_range : Limited
Аудио
Идентификатор : 2
Формат : AC-3
Формат/Информация : Audio Coding 3
Расширение режима : CM (complete main)
Параметр Endianness формата : Big
Идентификатор кодека : A_AC3
Продолжительность : 2 ч. 16 м.
Вид битрейта : Постоянный
Битрейт : 448 Кбит/сек
Каналы : 6 каналов
Расположение каналов : Front: L C R, Side: L R, LFE
Частота : 48,0 КГц
Битовая глубина : 16 бит
Метод сжатия : С потерями
Размер потока : 439 Мбайт (8%)
Заголовок : Оригинал AC-3; 16 bit 48 Khz; 6ch 448 Kbps; CBR
Язык : Russian
Default : Да
Forced : Нет

Релиз подготовлен 60 - fps

 
Показать сообщения:    

Текущее время: 10-Дек 19:34

Часовой пояс: UTC + 3


Вы не можете начинать темы
Вы не можете отвечать на сообщения
Вы не можете редактировать свои сообщения
Вы не можете удалять свои сообщения
Вы не можете голосовать в опросах
Вы не можете прикреплять файлы к сообщениям
Вы не можете скачивать файлы