[Цитировать]
Kryl

-Jennifer Lopez feat. Pitbull - Live It Up (2013) Master 720p | 60 fps- Информация о Клипе
Исполнитель: Jennifer Lopez feat. Pitbull
Название: Live It Up
Год выхода: 2013
Продолжительность: 00:04:26-Файл
Кодек: MPEG4/ISO/AVC/ H.264
Формат: MKV
Качество: MasterRip 720p
Видео: 1280 x 720 (1.778) at 59.880 fps 12.6 Мбит/сек
Аудио: AC-3 | 448 Кбит/сек | 48.0 KHz | 2 channels
Аудио: FLAC | 1 411 Кбит/сек | 48.0 KHz | 2 channels

MI

Видео
Идентификатор : 1
Формат : AVC
Формат/Информация : Advanced Video Codec
Профиль формата : Main@L4.1
Параметр CABAC формата : Да
Параметр ReFrames формата : 3 кадра
Идентификатор кодека : V_MPEG4/ISO/AVC
Продолжительность : 4 м. 26 с.
Битрейт : 12,6 Мбит/сек
Ширина : 1280 пикселей
Высота : 720 пикселей
Соотношение сторон : 16:9
Режим частоты кадров : Постоянный
Частота кадров : 59,880 кадров/сек
Частота кадров в оригинале : 59,940 кадров/сек
Стандарт вещания : NTSC
Цветовое пространство : YUV
Субдискретизация насыщенности : 4:2:0
Битовая глубина : 8 бит
Тип развёртки : Прогрессивная
Бит/(Пиксели*Кадры) : 0.229
Размер потока : 401 Мбайт (85%)
Заголовок : www/60-fps.org
Язык : English
Default : Да
Forced : Нет
Основные цвета : BT.709
Характеристики трансфера : BT.709
Коэффициенты матрицы : BT.709
colour_range : Limited
Аудио #1
Идентификатор : 2
Формат : AC-3
Формат/Информация : Audio Coding 3
Расширение режима : CM (complete main)
Параметр Endianness формата : Big
Идентификатор кодека : A_AC3
Продолжительность : 4 м. 26 с.
Вид битрейта : Постоянный
Битрейт : 448 Кбит/сек
Каналы : 2 канала
Расположение каналов : Front: L R
Частота : 48,0 КГц
Битовая глубина : 16 бит
Метод сжатия : С потерями
Задержка видео : 119 мс.
Размер потока : 14,2 Мбайт (3%)
Заголовок : 48.0 (kHz), PCM, 2 (ch), 1536 (kbps)
Язык : English
Default : Да
Forced : Нет
DURATION : 00:04:25.899000000
NUMBER_OF_FRAMES : 8325
NUMBER_OF_BYTES : 14918400
_STATISTICS_WRITING_APP : mkvmerge v7.6.0 ('Garden of Dreams') 32bit built on Feb 8 2015 12:51:39
_STATISTICS_WRITING_DATE_UTC : 2015-05-08 07:05:55
_STATISTICS_TAGS : BPS DURATION NUMBER_OF_FRAMES NUMBER_OF_BYTES
Аудио #2
Идентификатор : 3
Формат : DTS
Формат/Информация : Digital Theater Systems
Режим : 16
Параметр Endianness формата : Big
Идентификатор кодека : A_DTS
Продолжительность : 4 м. 26 с.
Вид битрейта : Постоянный
Битрейт : 1413 Кбит/сек
Каналы : 2 канала
Расположение каналов : Front: L R
Частота : 48,0 КГц
Битовая глубина : 16 бит
Метод сжатия : С потерями
Задержка видео : 124 мс.
Размер потока : 44,9 Мбайт (10%)
Заголовок : 48.0 (kHz), PCM, 2 (ch), 1536 (kbps)
Язык : English
Default : Нет
Forced : Нет

Релиз подготовлен 60 - fps

 
Показать сообщения:    

Текущее время: 06-Дек 15:06

Часовой пояс: UTC + 3


Вы не можете начинать темы
Вы не можете отвечать на сообщения
Вы не можете редактировать свои сообщения
Вы не можете удалять свои сообщения
Вы не можете голосовать в опросах
Вы не можете прикреплять файлы к сообщениям
Вы не можете скачивать файлы