Lady Gaga - Bad Romance (2009) Master | ProRes Jennifer Lopez - Waiting For Tonight (1999) 540p | Master | ProRes Britney Spears - Slumber Party ft. Tinashe (2016) Master | ProRes Rihanna - Shut Up And Drive (2007) Master | ProRes INNA - J'Adore (2012) Master | ProRes Ariana Grande The Weeknd - Love Me Harder (2014) Master | ProRes Lady Gaga - Paparazzi (2009) Master | ProRes Jennifer Lopez - I'm Into You ft. Lil Wayne (2011) Master | ProRes
  1. Стаж:
    3 года 11 месяцев
    Сообщений:
    2411
    Пол:
    Мужской
    -Jennifer Lopez - Waiting For Tonight (1999) 540p | Master | ProRes --Информация о Клипе
    Исполнитель: Jennifer Lopez
    Название: Waiting For Tonight
    Год выхода: 1999
    Продолжительность: 00:04:51-Описание:
    «Waiting for Tonight» (рус. В ожидании сегодняшней ночи) — песня, написанная Марией Кристенсен, Майклом Гарвиным и Филом Темплом. Изначально, композиция предназначалась для американской девичьей группы 3rd Party (англ.)русск. и вошла в их дебютный альбом Alive (1997). Спустя два года после распада группы, американская актриса и певица Дженнифер Лопес записала собственную версию песни, которая вошла в её дебютный студийный альбом On the 6 (1999). Рик Уэйк и Ричи Джонс спродюсировали данс-поп-версию песни Лопес, которая сильно отличается от немецкой европоп-версии группы 3rd Party. Испаноязычная версия песни под названием «Una Noche Más» была переведена с английского Мэнни Бенито и также вошла в дебютный альбом Лопес. Композиция была выпущена 1 ноября 1999 года на лейбле Work Group как третий сингл с On the 6.
    Такие издания, как Entertainment Weekly и Chicago Tribune посчитали, что песня может стать лучшей в карьере Лопес. Песня получила одобрительные отзывы от музыкальных критиков, которые посчитали, что именно эта песня сделала её одной из главный исполнительниц современной данс-поп-музыки. Она также служила праздничным гимном в предвкушении нового тысячелетия. Сингл стал коммерчески успешным, попав на вершину чартов Австралии, Финляндии, Франции, Италии, Нидерландов, Новой Зеландии, Испании, Великобритании и США. «Waiting for Tonight» стала первой песней Лопес, которая попала в топ-10 чарта Billboard Hot Dance Club Songs. С этой композицией Лопес в 2000 году была номинирована на 42-ю премию «Грэмми» в категории «Лучшая танцевальная запись».
    Одноимённый видеоклип был снят Фрэнсисом Лоуренсом. В нём представлена тематическая вечеринка в стиле Y2K. Клип обрёл широкую популярность, получив тяжёлую ротацию на канале MTV, и так как в нём делался акцент на привлекательности Лопес, привело к вниманию различных СМИ. Клип был номинирован на различные премии, в том числе и на MTV Video Music Awards 2000, где он выиграл в номинации «Лучшее танцевальное видео». Критики отмечали, что такие исполнители как Адам Ламберт, Рианна, Селена Гомес и некоторые другие, снимали свои видеоклипы по мотивам «Waiting for Tonight». Лопес исполняла композицию в таких телевизионных передачах как Dick Clark’s New Year’s Rockin' Eve и на различных церемониях награждения, включая одиннадцатую премию Billboard Music Awards, и на двух выступлениях её концертных туров, в частности на Dance Again World Tour.
    -Файл
    Кодек: APCH
    Контейнер: MOV
    Формат: ProRes
    Качество: Master
    Видео: 720 x 540 (1.333) | 23.976 fps | 54 Мбит/сек
    Аудио: PCM | 1536 Кбит/сек | 2.0 канала | 48.0 КГц | 16 бит

    MediaInfo

    Формат : QuickTime
    Формат/Информация : Original Apple specifications
    Размер файла : 1,88 Гбайт
    Продолжительность : 4 м. 51 с.
    Режим общего битрейта : Переменный
    Общий поток : 55,5 Мбит/сек
    Дата кодирования : UTC 2015-12-06 03:31:43
    Дата пометки : UTC 2015-12-06 03:35:34
    Библиотека кодирования : Apple QuickTime
    Видео
    Идентификатор : 2
    Формат : ProRes
    Версия формата : Version 0
    Профиль формата : High
    Идентификатор кодека : apch
    Продолжительность : 4 м. 51 с.
    Вид битрейта : Переменный
    Битрейт : 54,0 Мбит/сек
    Ширина : 720 пикселей
    Высота : 540 пикселей
    Соотношение сторон : 4:3
    Режим частоты кадров : Постоянный
    Частота кадров : 23,976 кадра/сек
    Цветовое пространство : YUV
    Субдискретизация насыщенности : 4:2:2
    Тип развёртки : Прогрессивная
    Бит/(Пиксели*Кадры) : 5.791
    Размер потока : 1,83 Гбайт (97%)
    Библиотека кодирования : Apple
    Язык : English
    Дата кодирования : UTC 2015-12-06 03:31:43
    Дата пометки : UTC 2015-12-06 03:35:34
    Коэффициенты матрицы : BT.601
    Аудио
    Идентификатор : 1
    Формат : PCM
    Параметр Endianness формата : Little
    Параметр Sign формата : Signed
    Идентификатор кодека : sowt
    Продолжительность : 4 м. 51 с.
    Вид битрейта : Постоянный
    Битрейт : 1536 Кбит/сек
    Каналы : 2 канала
    Расположение каналов : Front: L R
    Частота : 48,0 КГц
    Битовая глубина : 16 бит
    Размер потока : 53,3 Мбайт (3%)
    Язык : English
    Дата кодирования : UTC 2015-12-06 03:31:43
    Дата пометки : UTC 2015-12-06 03:35:34
    Прочее
    Идентификатор : 3
    Тип : Time code
    Формат : QuickTime TC
    Продолжительность : 4 м. 51 с.
    Временной код первого кадра : 01:00:00:00
    TimeCode_Striped/String : Да
    Язык : English
    Дата кодирования : UTC 2015-12-06 03:35:34
    Дата пометки : UTC 2015-12-06 03:35:34

    Релиз подготовлен 60 - fps

  2. Стаж:
    2 года 2 месяца
    Сообщений:
    11
    Пол:
    Не указан
    Улыбаюсь Улыбаюсь
    03-Сен-2017 10:11 (спустя 2 часа 50 минут)
  3. Стаж:
    1 год 10 месяцев
    Сообщений:
    96
    Пол:
    Мужской
    Спасибо!
    А в 60 fps будет?
    03-Сен-2017 23:12 (спустя 13 часов)
  4. Стаж:
    3 года 11 месяцев
    Сообщений:
    2411
    Пол:
    Мужской
    8422Спасибо!
    А в 60 fps будет?
    видеоряд плохенький , хоть и исходник .. наверное нет .
    04-Сен-2017 06:08 (спустя 6 часов)
  5. Стаж:
    1 год 2 месяца
    Сообщений:
    2
    Пол:
    Не указан
    Внесите в описание, что это ремикс, а не оригинал. А так спасибо, качество порадовало.
    07-Сен-2017 20:21 (спустя 3 дня)
  6. Стаж:
    8 месяцев
    Сообщений:
    2
    Пол:
    Мужской
    Is this the Hex Hector Remix version?
    23-Янв-2018 16:00 (спустя 4 месяца 15 дней)


Вы не можете начинать темы
Вы не можете отвечать на сообщения
Вы не можете редактировать свои сообщения
Вы не можете удалять свои сообщения
Вы не можете голосовать в опросах
Вы не можете прикреплять файлы к сообщениям
Вы не можете скачивать файлы