Lady Gaga - Bad Romance (2009) Master | ProRes Lady Gaga - Poker Face (2009) Master | ProRes Jennifer Lopez - Waiting For Tonight (1999) 540p | Master | ProRes Lady Gaga - Paparazzi (2009) Master | ProRes Britney Spears - Hold It Against Me (2011) Master | ProRes Rihanna feat. Drake - Work (2016) Master | ProRes Lady Gaga - Born This Way (2011) Master | ProRes Rihanna - Shut Up And Drive (2007) Master | ProRes
  1. Longevity:
    5 years 2 months
    Posts:
    2418
    Gender:
    Male
    -Jennifer Lopez - I'm Into You ft. Lil Wayne (2011) Master | ProRes --Информация о Клипе
    Исполнитель: Jennifer Lopez
    Название: I'm Into You ft. Lil Wayne
    Год выхода: 2011
    Продолжительность: 00:04:22--Описание:
    The music video for "I'm Into You" was directed by Melina Matsoukas. Lopez shot the video's main scenes in Chichen Itza, Mexico in early April 2011. Additional scenes with Lil Wayne were shot on April 21 in Los Angeles.[54] Throughout its production, Lopez shared multiple photos from the video shoot with her fans through social networking website Twitter. US Weekly reported that scenes were filmed at different locations around a Mayan archaeological site. During one of the scenes shot at night, the ancient columns were lit for Lopez to dance around. At its three-minute mark, the video switches to a dance-breakdown to the song "Papi" where Lopez is backed by two female dancers.[57] Rap-Up released two images from the shoot, and wrote: "A tatted Weezy leaned his back against People's Most Beautiful Woman in the World in the first images from the set." Telenovela star and model William Levy was cast as Lopez's love interest for the video. Lopez explained to Extra how she found the Cuban actor: "I called my cousins and I said 'Who's the hottest guy right now?' and they're like William Levy! And I was like, 'Okay, let's get William Levy!"
    The video aired on NBC's Today on May 2, 2011. Although Lil Wayne was pictured filming scenes with Lopez, on green-screen, in Los Angeles, he does not appear in the version of the video premiered on Today. A version featuring the rapper was uploaded to Lopez's official Vevo on May 9, 2011. It is nearly identical to the first version, but features additional scenes where Lil Wayne appears alone against a dimly lit yellow backdrop.
    -Файл
    Кодек: APCH
    Контейнер: MOV
    Формат: ProRes
    Качество: Master
    Видео: 1920 x 1080 (1.778) | 23.976 fps | 163 Мбит/сек
    Аудио: PCM | 2304 Кбит/сек | 2.0 канала | 48.0 КГц | 24 бит

    MediaInfo

    Формат : MPEG-4
    Профиль формата : QuickTime
    Идентификатор кодека : qt
    Размер файла : 5,04 Гбайт
    Продолжительность : 4 м. 22 с.
    Режим общего битрейта : Переменный
    Общий поток : 165 Мбит/сек
    Дата кодирования : UTC 2016-12-23 10:18:30
    Дата пометки : UTC 2016-12-23 10:23:11
    Библиотека кодирования : Apple QuickTime
    Видео
    Идентификатор : 1
    Формат : ProRes
    Версия формата : Version 0
    Профиль формата : High
    Идентификатор кодека : apch
    Продолжительность : 4 м. 22 с.
    Вид битрейта : Переменный
    Битрейт : 163 Мбит/сек
    Ширина : 1920 пикселей
    Высота : 1080 пикселей
    Соотношение сторон : 16:9
    Режим частоты кадров : Постоянный
    Частота кадров : 23,976 кадра/сек
    Цветовое пространство : YUV
    Субдискретизация насыщенности : 4:2:2
    Тип развёртки : Прогрессивная
    Бит/(Пиксели*Кадры) : 3.269
    Размер потока : 4,97 Гбайт (99%)
    Библиотека кодирования : arh0
    Язык : English
    Дата кодирования : UTC 2016-12-23 10:18:30
    Дата пометки : UTC 2016-12-23 10:23:11
    Основные цвета : BT.709
    Характеристики трансфера : BT.709
    Коэффициенты матрицы : BT.709
    matrix_coefficients_Original : BT.709
    Аудио
    Идентификатор : 2
    Формат : PCM
    Параметр Endianness формата : Little
    Параметр Sign формата : Unsigned
    Идентификатор кодека : in24
    Продолжительность : 4 м. 22 с.
    Вид битрейта : Постоянный
    Битрейт : 2304 Кбит/сек
    Каналы : 2 канала
    Расположение каналов : Front: L R
    Частота : 48,0 КГц
    Битовая глубина : 24 бит
    Размер потока : 72,1 Мбайт (1%)
    Язык : English
    Дата кодирования : UTC 2016-12-23 10:18:30
    Дата пометки : UTC 2016-12-23 10:23:13

    Release was prepared by 60 - fps

  2. Longevity:
    2 years 11 months
    Posts:
    5
    Gender:
    Unknown
    reseed please
    08-Sep-2017 23:14 (after 1 month 3 days)
  3. Longevity:
    2 years 11 months
    Posts:
    5
    Gender:
    Unknown
    why dont you seed it completly?
    11-Sep-2017 19:53 (after 2 days 20 hours)


You cannot post new topics in this forum
You cannot reply to topics in this forum
You cannot edit your posts in this forum
You cannot delete your posts in this forum
You cannot vote in polls in this forum
You cannot attach files in this forum
You cannot download files in this forum