Статистика раздачи
Размер:  987 MB   |    Зарегистрирован:  8 месяцев 17 дней   |    Скачан:  56 раз
Сидов:  2  [  0 KB/s  ]   Подробная статистика пиров
 
 
 
Luis Fonsi - Despacito ft. Daddy Yankee (2017) WEBRip 1080p | 60 fps Taylor Swift - …Ready For It? (2017) WEBRip 1080p | 60 fps Jennifer Lopez feat. Gente de Zona - Ni Tu Ni Yo (2017) WEBRip 1080p | 60 fps Katy Perry - Dark Horse (2014) Full HD 1080p | 60 fps Taylor Swift - Look What You Made Me Do (2017) WEBRip 1080p | 60 fps Serebro - В Космосе (2017) Full HD 1080p | 60 fps Inna - Gimme Gimme (2017) Full HD 1080p | 60 fps Britney Spears - Toxic (2004) HDTVRip 1080p | 60 fps Shakira - Chantaje ft. Maluma (2016) Full HD 1080p | 60 fps Serebro - Пройдёт (Mood Video) (2017) Full HD 1080p | 60 fps Dan Balan - Chica Bomb (2010) WEBRip 1080p | 60 fps Глюк'oZа feat. Artik & Asti - Пахну лишь тобой (2017) 2K | WEBRip | 60 fps
  1. Стаж:
    3 года 4 месяца
    Сообщений:
    2193
    Пол:
    Мужской
     
    -Jennifer Lopez - I'm Into You ft. Lil Wayne (2011) Full HD 1080p | 60 fps- -Информация
    Исполнитель: Jennifer Lopez
    Название: I'm Into You ft. Lil Wayne
    Год выхода: 2011
    Продолжительность: 00:04:18
    --Файл
    Кодек: MPEG4/ISO/AVC/H.264
    Формат: MKV
    Качество: Full HD 1080p | 60 fps
    Видео: 1920 x 1080 (1.778) | 59.940 fps 30.0 Мбит/сек
    Аудио: DTS | 1413 Кбит/сек | 48.0 KHz | 2.0 channels

    MediaInfo

    Видео
    Идентификатор : 1
    Формат : AVC
    Формат/Информация : Advanced Video Codec
    Профиль формата : High@L4.1
    Параметр CABAC формата : Да
    Параметр ReFrames формата : 4 кадра
    Идентификатор кодека : V_MPEG4/ISO/AVC
    Продолжительность : 4 м. 22 с.
    Битрейт : 30,0 Мбит/сек
    Ширина : 1920 пикселей
    Высота : 1080 пикселей
    Соотношение сторон : 16:9
    Режим частоты кадров : Постоянный
    Частота кадров : 59,880 кадров/сек
    Частота кадров в оригинале : 59,940 кадров/сек
    Цветовое пространство : YUV
    Субдискретизация насыщенности : 4:2:0
    Битовая глубина : 8 бит
    Тип развёртки : Прогрессивная
    Бит/(Пиксели*Кадры) : 0.242
    Размер потока : 923 Мбайт (94%)
    Заголовок : www.60-fps.org
    Библиотека кодирования : x264 core 148 r2744 b97ae06
    Настройки программы : cabac=1 / ref=4 / deblock=1:-3:-3 / analyse=0x3:0x113 / me=umh / subme=8 / psy=1 / psy_rd=1.00:0.25 / mixed_ref=1 / me_range=32 / chroma_me=1 / trellis=1 / 8x8dct=1 / cqm=0 / deadzone=6,6 / fast_pskip=1 / chroma_qp_offset=-4 / threads=12 / lookahead_threads=2 / sliced_threads=0 / nr=0 / decimate=0 / interlaced=0 / bluray_compat=0 / constrained_intra=0 / bframes=3 / b_pyramid=2 / b_adapt=1 / b_bias=0 / direct=3 / weightb=1 / open_gop=0 / weightp=2 / keyint=599 / keyint_min=59 / scenecut=40 / intra_refresh=0 / rc_lookahead=50 / rc=2pass / mbtree=1 / bitrate=29999 / ratetol=1.0 / qcomp=0.80 / qpmin=0 / qpmax=69 / qpstep=4 / cplxblur=20.0 / qblur=0.5 / vbv_maxrate=62500 / vbv_bufsize=78125 / nal_hrd=none / filler=0 / ip_ratio=1.10 / aq=1:0.50
    Default : Да
    Forced : Нет
    Аудио
    Идентификатор : 2
    Формат : DTS
    Формат/Информация : Digital Theater Systems
    Режим : 16
    Параметр Endianness формата : Big
    Идентификатор кодека : A_DTS
    Продолжительность : 4 м. 22 с.
    Вид битрейта : Постоянный
    Битрейт : 1413 Кбит/сек
    Каналы : 2 канала
    Расположение каналов : Front: L R
    Частота : 48,0 КГц
    Битовая глубина : 16 бит
    Метод сжатия : С потерями
    Задержка видео : 83 мс.
    Размер потока : 44,3 Мбайт (4%)
    Язык : English
    Default : Да
    Forced : Нет
    DURATION : 00:04:22.646000000
    NUMBER_OF_FRAMES : 24623
    NUMBER_OF_BYTES : 46389732
    _STATISTICS_WRITING_APP : mkvmerge v7.6.0 ('Garden of Dreams') 32bit built on Feb 8 2015 12:51:39
    _STATISTICS_WRITING_DATE_UTC : 2017-06-01 18:36:31
    _STATISTICS_TAGS : BPS DURATION NUMBER_OF_FRAMES NUMBER_OF_BYTES

    Релиз подготовлен 60 - fps

    [60-fps.org].t2701.torrent
    Торрент: Зарегистрирован 2017-06-01 21:43
    HASH: 7F76DA87C18F5829C40AD7F670663F25090C37AE
    Статус: проверено
    Скачан: 56 раз
    Сидов: 2 [0 KB/s]
    Личеров: 0
    Оценка:
    (Голосов: 5)
    Поблагодарили: 7  Спасибо   (список)
    Похожие Темы


Вы не можете начинать темы
Вы не можете отвечать на сообщения
Вы не можете редактировать свои сообщения
Вы не можете удалять свои сообщения
Вы не можете голосовать в опросах
Вы не можете прикреплять файлы к сообщениям
Вы можете скачивать файлы