1. Longevity:
    6 years 11 months
    Posts:
    2413
    Gender:
    Male
    --Jennifer Lopez - Booty ft. Iggy Azalea (2014) BDRip 1080p | 60 fps --Информация о Клипе
    Исполнитель: Jennifer Lopez
    Название: Booty ft. Iggy Azalea
    Год выхода: 2014
    Продолжительность: 00:04:16-Файл
    Кодек: MPEG4/ISO/AVC/ H.264
    Формат: MKV
    Качество: BDRip 1080p
    Видео: 1920 x 1080 (16:9) at 59.940 fps 20.3 Мбит/сек
    Аудио: AAC |384 Кбит/сек | 48.0 KHz | 6 channels

    MI

    Общее
    Уникальный идентификатор : 216721093582211842968600989861824531811 (0xA30AF6E1052006ED63B0064DEB098D63)
    Полное имя : H:\Clips\Jennifer Lopez feat. Iggy Azalea - Booty.60fps.mkv
    Формат : Matroska
    Версия формата : Version 4 / Version 2
    Размер файла : 633 Мбайт
    Продолжительность : 4 м. 16 с.
    Общий поток : 20,7 Мбит/сек
    Название фильма : Jennifer Lopez feat. Iggy Azalea - Booty https://60-fps.org/
    Дата кодирования : UTC 2020-11-26 16:44:48
    Программа кодирования : mkvmerge v51.0.0 ('I Wish') 64-bit
    Библиотека кодирования : libebml v1.4.0 + libmatroska v1.6.2
    Attachments : Poster.png
    Видео
    Идентификатор : 1
    Формат : AVC
    Формат/Информация : Advanced Video Codec
    Профиль формата : [email protected]
    Параметр CABAC формата : Да
    Параметр ReFrames формата : 4 кадра
    Идентификатор кодека : V_MPEG4/ISO/AVC
    Продолжительность : 4 м. 16 с.
    Битрейт : 20,3 Мбит/сек
    Ширина : 1920 пикселей
    Высота : 1080 пикселей
    Соотношение сторон : 16:9
    Режим частоты кадров : Постоянный
    Частота кадров : 59,940 (59940/1000) кадров/сек
    Цветовое пространство : YUV
    Субдискретизация насыщенности : 4:2:0
    Битовая глубина : 8 бит
    Тип развёртки : Прогрессивная
    Бит/(Пиксели*Кадры) : 0.163
    Размер потока : 621 Мбайт (98%)
    Заголовок : Jennifer Lopez feat. Iggy Azalea - Booty https://60-fps.org/
    Библиотека кодирования : x264 core 146 r2538 121396c
    Настройки программы : cabac=1 / ref=3 / deblock=1:0:0 / analyse=0x3:0x113 / me=hex / subme=7 / psy=1 / psy_rd=1.00:0.00 / mixed_ref=1 / me_range=16 / chroma_me=1 / trellis=1 / 8x8dct=1 / cqm=0 / deadzone=21,11 / fast_pskip=1 / chroma_qp_offset=-2 / threads=6 / lookahead_threads=1 / sliced_threads=0 / nr=0 / decimate=1 / interlaced=0 / bluray_compat=0 / constrained_intra=0 / bframes=3 / b_pyramid=2 / b_adapt=1 / b_bias=0 / direct=1 / weightb=1 / open_gop=0 / weightp=2 / keyint=250 / keyint_min=25 / scenecut=40 / intra_refresh=0 / rc_lookahead=40 / rc=2pass / mbtree=1 / bitrate=20300 / ratetol=1.0 / qcomp=0.60 / qpmin=0 / qpmax=69 / qpstep=4 / cplxblur=20.0 / qblur=0.5 / ip_ratio=1.40 / aq=1:1.00
    Default : Да
    Forced : Нет
    Аудио
    Идентификатор : 2
    Формат : AC-3
    Формат/Информация : Audio Coding 3
    Расширение режима : CM (complete main)
    Параметр Endianness формата : Big
    Идентификатор кодека : A_AC3
    Продолжительность : 4 м. 16 с.
    Вид битрейта : Постоянный
    Битрейт : 384 Кбит/сек
    Каналы : 6 каналов
    Расположение каналов : Front: L C R, Side: L R, LFE
    Частота : 48,0 КГц
    Частота кадров : 31,250 кадров/сек (1536 spf)
    Битовая глубина : 16 бит
    Метод сжатия : С потерями
    Размер потока : 11,8 Мбайт (2%)
    Default : Да
    Forced : Нет

    Release was prepared by 60-fps.org

  2. Longevity:
    5 years 11 months
    Posts:
    7
    Gender:
    Unknown
    Подскажите,почему перестали начисляться СидБонусы?
    10-Dec-2015 06:30 (after 20 hours)
  3. Longevity:
    6 years 11 months
    Posts:
    2413
    Gender:
    Male
    4696Подскажите,почему перестали начисляться СидБонусы?
    А кому они надо :ab:
    10-Dec-2015 12:19 (after 5 hours)
  4. Longevity:
    5 years 11 months
    Posts:
    7
    Gender:
    Unknown
    Тогда и рейтинг убирайте.Кому он нужен?
    10-Dec-2015 19:25 (after 7 hours)
  5. Longevity:
    5 years 11 months
    Posts:
    7
    Gender:
    Unknown
    А если серьёзно,у меня ADSL,а с ним проблемно раздать большой объём.Спасали бонусы!!!!!!!!!!!!!!!
    10-Dec-2015 19:37 (after 11 minutes)
  6. Longevity:
    5 years 11 months
    Posts:
    7
    Gender:
    Unknown
    И,чё молчим?
    11-Dec-2015 19:52 (after 1 day)
  7. Longevity:
    6 years 11 months
    Posts:
    2413
    Gender:
    Male
    А что вы хотите услышать ?
    11-Dec-2015 20:09 (after 17 minutes)
  8. Longevity:
    9 months 25 days
    Posts:
    2
    Gender:
    Unknown
    4696Подскажите,почему перестали начисляться СидБонусы?
    26-Nov-2020 15:33 (after 4 years 11 months)
  9. Longevity:
    9 months 25 days
    Posts:
    2
    Gender:
    Unknown
    Jennifer Lopez - Booty ft. Iggy Azalea (2014) BDRip 1080p | 60 fps
    26-Nov-2020 15:34 (after 1 minute)
  10. Longevity:
    4 years 7 months
    Posts:
    290
    Gender:
    Male
    Торрент обновлен. Скачавших просьба обновить!!!
    Torrent updated. Downloaded please update !!!
    26-Nov-2020 19:52 (after 4 hours)


You cannot post new topics in this forum
You cannot reply to topics in this forum
You cannot edit your posts in this forum
You cannot delete your posts in this forum
You cannot vote in polls in this forum
You cannot attach files in this forum
You cannot download files in this forum