[Цитировать]
Kryl

Женитьба Бальзаминова (1964) DVDRip | 60fps-- Информация о фильме
Название: Женитьба Бальзаминова
Год выхода: 1964
Жанр: Комедия
Режиссер: Константин Воинов
Сценарий: Константин Воинов, Александр Островский
В ролях: Георгий Вицин, Людмила Шагалова, Лидия Смирнова, Екатерина Савинова, Жанна Прохоренко, Людмила Гурченко, Тамара Носова, Николай Крючков, Ролан Быков, Инна Макарова, Надежда Румянцева, Татьяна Конюхова, Нонна Мордюкова
----О фильме:
Действие фильма происходит в Москве, в XIX веке. Мелкий чиновник Миша Бальзаминов (Георгий Вицин) и его маменька (Людмила Шагалова) мечтают о браке по расчёту.
Бальзаминов, ещё не поднявшись с постели, разгадывает смысл сна, обещающего скорую женитьбу. Решая, что сон должен сбыться, Миша выходит на двор, умыться. В это время к ним приезжает сваха и рассказывает о том, что она нашла Мише невесту, и что семейство Бальзаминовых приглашено к семейству невесты, к Ничкиным. Собираясь к Ничкиным, Бальзаминов уже начинает мечтать о том, как потратить приданое.
- Страна: СССР
Продолжительность: 01:24:41
--Файл
Кодек: MPEG4/ISO/AVC H.264
Формат: MKV
Качество: DVDRip
Видео: 720 x 544 (1.324) | 60.000 fps | 5.0 Мбит/сек
Аудио: AC3 | 5.1 | 48 kHz | 448kbps | 16 bit

MedifInfo

Видео
Идентификатор : 1
Формат : AVC
Формат/Информация : Advanced Video Codec
Профиль формата : High@L4.1
Параметр CABAC формата : Да
Параметр ReFrames формата : 8 кадров
Идентификатор кодека : V_MPEG4/ISO/AVC
Продолжительность : 1 ч. 24 м.
Битрейт : 4999 Кбит/сек
Ширина : 720 пикселей
Высота : 544 пикселя
Соотношение сторон : 4:3
Режим частоты кадров : Постоянный
Частота кадров : 60,000 кадров/сек
Цветовое пространство : YUV
Субдискретизация насыщенности : 4:2:0
Битовая глубина : 8 бит
Тип развёртки : Прогрессивная
Бит/(Пиксели*Кадры) : 0.213
Размер потока : 2,90 Гбайт (90%)
Заголовок : www.60-fps.org
Библиотека кодирования : x264 core 129 r2245 bc13772
Настройки программы : cabac=1 / ref=8 / deblock=1:-1:-1 / analyse=0x3:0x133 / me=esa / subme=9 / psy=1 / psy_rd=1.00:0.25 / mixed_ref=1 / me_range=32 / chroma_me=1 / trellis=2 / 8x8dct=1 / cqm=0 / deadzone=6,6 / fast_pskip=1 / chroma_qp_offset=-4 / threads=12 / lookahead_threads=2 / sliced_threads=0 / nr=0 / decimate=0 / interlaced=0 / bluray_compat=0 / constrained_intra=0 / bframes=3 / b_pyramid=2 / b_adapt=2 / b_bias=0 / direct=3 / weightb=1 / open_gop=0 / weightp=2 / keyint=600 / keyint_min=60 / scenecut=40 / intra_refresh=0 / rc_lookahead=60 / rc=2pass / mbtree=1 / bitrate=4999 / ratetol=1.0 / qcomp=0.80 / qpmin=0 / qpmax=69 / qpstep=4 / cplxblur=19.0 / qblur=0.0 / ip_ratio=1.10 / aq=1:0.50
Язык : English
Default : Нет
Forced : Нет
Аудио
Идентификатор : 2
Формат : AC-3
Формат/Информация : Audio Coding 3
Расширение режима : CM (complete main)
Параметр Endianness формата : Big
Идентификатор кодека : A_AC3
Продолжительность : 1 ч. 24 м.
Вид битрейта : Постоянный
Битрейт : 448 Кбит/сек
Каналы : 6 каналов
Расположение каналов : Front: L C R, Side: L R, LFE
Частота : 48,0 КГц
Битовая глубина : 16 бит
Метод сжатия : С потерями
Задержка видео : 940 мс.
Размер потока : 271 Мбайт (8%)
Заголовок : www.60-fps.org
Default : Да
Forced : Нет

Релиз подготовлен 60 - fps

[60-fps.org].t420.torrent
Торрент: Зарегистрирован [ 2015-02-14 10:01 ] · 1E2553E6765607404CEB895DFE5E51F4A26D2ABA

Скачать .torrent

Скачать

16 KB

Статус: проверено
Скачан: 25 раз
Поблагодарили:
Размер: 3,22 GB
 

[Цитировать]
ily122

Уважаемый Kryl !
Пожалуйста помогите скачать , "Женитьба Бальзаминова" .
С Уважением , ily122 .

[Цитировать]
ily122

Большое спасибо !
С Уважением , ily122 .
 
Показать сообщения:    

Текущее время: 20-Фев 02:23

Часовой пояс: UTC + 3


Вы не можете начинать темы
Вы не можете отвечать на сообщения
Вы не можете редактировать свои сообщения
Вы не можете удалять свои сообщения
Вы не можете голосовать в опросах
Вы не можете прикреплять файлы к сообщениям
Вы можете скачивать файлы