Железный человек

-Название: Железный человек
Оригинальное название: Iron Man
Год выпуска: 2008
Страна: США
Жанр: фантастика, боевик, приключения
Продолжительность: 02:06:01
Перевод: Дубляж
Субтитры: русские (Форсированные), русские (Полные), английские (Полные)-Режиссер: Джон Фавро / Jon Favreau-В ролях: Роберт Дауни мл. (Tony Stark / Iron Man), Джефф Бриджес (Obadiah Stane), Гвинет Пэлтроу (Pepper Potts), Терренс Ховард (Rhodey), Лесли Бибб (Christine Everhart), Шон Тоуб (Yinsen), Фаран Таир (Raza), Кларк Грегг (Agent Coulson), Джон Фавро (Hogan), Саид Бадрия (Abu Bakaar), Билл Смитрович (General Gabriel), Пол Беттани (Jarvis, озвучка)-Описание:
Миллиардер изобретатель Тони Старк попадает в плен к Афганским террористам, которые пытаются заставить его создать оружие массового поражения. В тайне от своих захватчиков Старк конструирует высокотехнологичную киберброню, которая помогает ему сбежать. Однако по возвращению в США он узнаёт, что в совете директоров его фирмы плетётся заговор, чреватый страшными последствиями. Используя своё последнее изобретение, Старк пытается решить проблемы своей компании радикально...-Рейтинг
-Релиз by: -Качество: BDRip 1080p / 60 FPS
Формат: MKV
Видео кодек: AVC
Аудио кодек:AC3
Видео: AVC, 1920x800 (2.40:1), 14000 kbps, 59,940 fps, 0,152 bpp
Аудио №1: русский / AC3 / 5.1 / 48 kHz / 448 kbps / 16 bit |Дубляж|
Аудио №2: английский / AC3 / 5.1 / 48 kHz / 640 kbps / 16 bit
Навигация по главам: есть- -

MI

General
Unique ID : 202619170330084333977110311460639501937 (0x986F0861F29168F890F1638D30D66E71)
Complete name : A:\Фильмы\1080p\Железный человек 1080p 60fps R.G. HD-Films\Железный человек 1.mkv
Format : Matroska
Format version : Version 4 / Version 2
File size : 13.3 GiB
Duration : 2h 6mn
Overall bit rate : 15.1 Mbps
Movie name : Tiberiumsun69
Encoded date : UTC 2015-06-23 12:34:29
Writing application : mkvmerge v7.9.0 ('Birds') 64bit
Writing library : libebml v1.3.1 + libmatroska v1.4.2
Attachment : Yes
Video
ID : 1
Format : AVC
Format/Info : Advanced Video Codec
Format profile : High@L4.1
Format settings, CABAC : Yes
Format settings, ReFrames : 4 frames
Codec ID : V_MPEG4/ISO/AVC
Duration : 2h 6mn
Bit rate : 14.0 Mbps
Width : 1 920 pixels
Height : 800 pixels
Display aspect ratio : 2.40:1
Frame rate : 59.940 fps
Color space : YUV
Chroma subsampling : 4:2:0
Bit depth : 8 bits
Scan type : Progressive
Bits/(Pixel*Frame) : 0.152
Stream size : 12.1 GiB (91%)
Title : Tiberiumsun69
Writing library : x264 core 146 r2538 121396c
Encoding settings : cabac=1 / ref=4 / deblock=1:0:0 / analyse=0x3:0x113 / me=umh / subme=9 / psy=1 / psy_rd=1.00:0.10 / mixed_ref=1 / me_range=32 / chroma_me=1 / trellis=2 / 8x8dct=1 / cqm=0 / deadzone=21,11 / fast_pskip=0 / chroma_qp_offset=-3 / threads=12 / lookahead_threads=3 / sliced_threads=0 / nr=0 / decimate=1 / interlaced=0 / bluray_compat=0 / constrained_intra=0 / bframes=16 / b_pyramid=2 / b_adapt=2 / b_bias=0 / direct=3 / weightb=1 / open_gop=0 / weightp=2 / keyint=600 / keyint_min=59 / scenecut=40 / intra_refresh=0 / rc_lookahead=60 / rc=2pass / mbtree=1 / bitrate=14000 / ratetol=1.0 / qcomp=0.60 / qpmin=0 / qpmax=69 / qpstep=4 / cplxblur=20.0 / qblur=0.5 / vbv_maxrate=50000 / vbv_bufsize=62500 / nal_hrd=none / filler=0 / ip_ratio=1.40 / aq=1:1.00
Language : English
Default : Yes
Forced : No
Audio #1
ID : 2
Format : AC-3
Format/Info : Audio Coding 3
Mode extension : CM (complete main)
Codec ID : A_AC3
Duration : 2h 6mn
Bit rate mode : Constant
Bit rate : 448 Kbps
Channel(s) : 6 channels
Channel positions : Front: L C R, Side: L R, LFE
Sampling rate : 48.0 KHz
Bit depth : 16 bits
Compression mode : Lossy
Stream size : 404 MiB (3%)
Title : Дубляж
Language : Russian
Default : Yes
Forced : No
Audio #2
ID : 3
Format : AC-3
Format/Info : Audio Coding 3
Mode extension : CM (complete main)
Codec ID : A_AC3
Duration : 2h 6mn
Bit rate mode : Constant
Bit rate : 640 Kbps
Channel(s) : 6 channels
Channel positions : Front: L C R, Side: L R, LFE
Sampling rate : 48.0 KHz
Bit depth : 16 bits
Compression mode : Lossy
Stream size : 577 MiB (4%)
Title : Оригинал
Language : English
Default : No
Forced : No
Text #1
ID : 4
Format : UTF-8
Codec ID : S_TEXT/UTF8
Codec ID/Info : UTF-8 Plain Text
Title : Форсированные
Language : Russian
Default : Yes
Forced : No
Text #2
ID : 5
Format : UTF-8
Codec ID : S_TEXT/UTF8
Codec ID/Info : UTF-8 Plain Text
Title : Полные
Language : Russian
Default : No
Forced : No
Text #3
ID : 6
Format : UTF-8
Codec ID : S_TEXT/UTF8
Codec ID/Info : UTF-8 Plain Text
Title : Полные
Language : English
Default : No
Forced : No
Menu
00:00:00.000 : :00:00:00.000
00:09:06.171 : :00:09:06.171
00:18:00.579 : :00:18:00.579
00:26:49.942 : :00:26:49.942
00:35:01.850 : :00:35:01.850
00:43:15.259 : :00:43:15.259
00:52:38.489 : :00:52:38.489
00:59:24.644 : :00:59:24.644
01:07:32.423 : :01:07:32.423
01:11:44.300 : :01:11:44.300
01:18:31.206 : :01:18:31.206
01:24:40.575 : :01:24:40.575
01:35:00.111 : :01:35:00.111
01:44:29.346 : :01:44:29.346
01:53:31.471 : :01:53:31.471

Скриншоты

Железный человек 2

-Название: Железный человек 2
Оригинальное название: Iron Man 2
Год выпуска: 2010
Страна: США
Жанр: фантастика, боевик, приключения
Продолжительность: 02:04:53
Перевод: Дубляж
Субтитры: русские (Форсированные), русские (Полные), английские (Полные)-Режиссер: Джон Фавро / Jon Favreau-В ролях: Роберт Дауни мл. (Tony Stark), Микки Рурк (Ivan Vanko), Гвинет Пэлтроу (Pepper Potts), Дон Чидл (Lt. Col. James «Rhodey» Rhodes), Сэм Рокуэлл (Justin Hammer), Скарлетт Йоханссон (Natalie Rushman / Natasha Romanoff), Кларк Грегг (Agent Coulson), Сэмюэл Л. Джексон (Nick Fury), Джон Слэттери (Howard Stark), Гарри Шендлинг (Senator Stern), Пол Беттани (Jarvis, озвучка), Кейт Мара (U.S. Marshal)-Описание:
Прошло полгода с тех пор, как мир узнал, что миллиардер-изобретатель Тони Старк является обладателем уникальной кибер-брони Железного человека. Общественность требует, чтобы Старк передал технологию брони правительству США, но Тони не хочет разглашать её секреты, потому что боится, что она попадёт не в те руки.
Между тем Иван Ванко - сын русского учёного, когда-то работавшего на фирму Старка, но потом уволенного и лишенного всего, намерен отомстить Тони за беды своей семьи. Для чего сооружает своё высокотехнологичное оружие.-Рейтинг
-Релиз by: -Качество: BDRip 1080p / 60 FPS
Формат: MKV
Видео кодек: AVC
Аудио кодек:AC3
Видео: AVC, 1920x816 (2.35:1), 14100 kbps, 59,940 fps, 0,150 bpp
Аудио №1: русский / AC3 / 5.1 / 48 kHz / 640 kbps / 16 bit |Дубляж|
Аудио №2: английский / AC3 / 5.1 / 48 kHz / 640 kbps / 16 bit
Навигация по главам: есть- -

MI

General
Unique ID : 234010213178957020547365445152022059615 (0xB00CBA4996CA4203ACFE6D597355DA5F)
Complete name : A:\Фильмы\1080p\Железный человек 1080p 60fps R.G. HD-Films\Железный человек 2.mkv
Format : Matroska
Format version : Version 4 / Version 2
File size : 13.4 GiB
Duration : 2h 4mn
Overall bit rate : 15.4 Mbps
Movie name : Tiberiumsun69
Encoded date : UTC 2015-06-23 13:45:19
Writing application : mkvmerge v7.9.0 ('Birds') 64bit
Writing library : libebml v1.3.1 + libmatroska v1.4.2
Attachment : Yes
Video
ID : 1
Format : AVC
Format/Info : Advanced Video Codec
Format profile : High@L4.1
Format settings, CABAC : Yes
Format settings, ReFrames : 4 frames
Codec ID : V_MPEG4/ISO/AVC
Duration : 2h 4mn
Bit rate : 14.1 Mbps
Width : 1 920 pixels
Height : 816 pixels
Display aspect ratio : 2.35:1
Frame rate : 59.940 fps
Color space : YUV
Chroma subsampling : 4:2:0
Bit depth : 8 bits
Scan type : Progressive
Bits/(Pixel*Frame) : 0.150
Stream size : 12.0 GiB (90%)
Title : Tiberiumsun69
Writing library : x264 core 146 r2538 121396c
Encoding settings : cabac=1 / ref=4 / deblock=1:0:0 / analyse=0x3:0x113 / me=umh / subme=9 / psy=1 / psy_rd=1.00:0.10 / mixed_ref=1 / me_range=32 / chroma_me=1 / trellis=2 / 8x8dct=1 / cqm=0 / deadzone=21,11 / fast_pskip=0 / chroma_qp_offset=-3 / threads=12 / lookahead_threads=3 / sliced_threads=0 / nr=0 / decimate=1 / interlaced=0 / bluray_compat=0 / constrained_intra=0 / bframes=16 / b_pyramid=2 / b_adapt=2 / b_bias=0 / direct=3 / weightb=1 / open_gop=0 / weightp=2 / keyint=600 / keyint_min=59 / scenecut=40 / intra_refresh=0 / rc_lookahead=60 / rc=2pass / mbtree=1 / bitrate=14100 / ratetol=1.0 / qcomp=0.60 / qpmin=0 / qpmax=69 / qpstep=4 / cplxblur=20.0 / qblur=0.5 / vbv_maxrate=50000 / vbv_bufsize=62500 / nal_hrd=none / filler=0 / ip_ratio=1.40 / aq=1:1.00
Language : English
Default : Yes
Forced : No
Audio #1
ID : 2
Format : AC-3
Format/Info : Audio Coding 3
Mode extension : CM (complete main)
Codec ID : A_AC3
Duration : 2h 4mn
Bit rate mode : Constant
Bit rate : 640 Kbps
Channel(s) : 6 channels
Channel positions : Front: L C R, Side: L R, LFE
Sampling rate : 48.0 KHz
Bit depth : 16 bits
Compression mode : Lossy
Stream size : 572 MiB (4%)
Title : Дубляж
Language : Russian
Default : Yes
Forced : No
Audio #2
ID : 3
Format : AC-3
Format/Info : Audio Coding 3
Mode extension : CM (complete main)
Codec ID : A_AC3
Duration : 2h 4mn
Bit rate mode : Constant
Bit rate : 640 Kbps
Channel(s) : 6 channels
Channel positions : Front: L C R, Side: L R, LFE
Sampling rate : 48.0 KHz
Bit depth : 16 bits
Compression mode : Lossy
Stream size : 572 MiB (4%)
Title : Оригинал
Language : English
Default : No
Forced : No
Text #1
ID : 4
Format : UTF-8
Codec ID : S_TEXT/UTF8
Codec ID/Info : UTF-8 Plain Text
Title : Форсированные
Language : Russian
Default : Yes
Forced : No
Text #2
ID : 5
Format : UTF-8
Codec ID : S_TEXT/UTF8
Codec ID/Info : UTF-8 Plain Text
Title : Полные
Language : Russian
Default : No
Forced : No
Text #3
ID : 6
Format : UTF-8
Codec ID : S_TEXT/UTF8
Codec ID/Info : UTF-8 Plain Text
Title : Полные
Language : English
Default : No
Forced : No
Menu
00:00:00.000 : en:Chapter 1
00:05:18.318 : en:Chapter 2
00:11:21.723 : en:Chapter 3
00:18:13.926 : en:Chapter 4
00:26:07.024 : en:Chapter 5
00:30:40.797 : en:Chapter 6
00:37:47.015 : en:Chapter 7
00:44:14.277 : en:Chapter 8
00:51:53.360 : en:Chapter 9
01:00:24.830 : en:Chapter 10
01:07:15.531 : en: Chapter 11
01:16:14.779 : en:Chapter 12
01:21:27.299 : en:Chapter 13
01:30:47.567 : en:Chapter 14
01:39:03.354 : en:Chapter 15
01:45:55.808 : en: Chapter 16
01:54:32.199 : en: Chapter 17
01:57:16.571 : en: Chapter 18

Скриншоты

Железный человек 3

-Название: Железный человек 3
Оригинальное название: Iron Man 3
Год выпуска: 2013
Страна: США, Китай
Жанр: фантастика, боевик, приключения
Продолжительность: 02:10:32
Перевод: Дубляж
Субтитры: русские (Форсированные), русские (Полные), английские (Полные)-Режиссер: Шейн Блэк / Shane Black-В ролях: Роберт Дауни мл. (Tony Stark), Гвинет Пэлтроу (Pepper Potts), Дон Чидл (Colonel James Rhodes), Гай Пирс (Aldrich Killian), Бен Кингсли (Trevor Slattery), Джеймс Бэдж Дэйл (Savin), Ребекка Холл (Maya Hansen), Тай Симпкинс (Harley Keener), Уильям Сэдлер (President Ellis), Джон Фавро (Happy Hogan), Стефани Зостак (Brandt), Пол Беттани (Jarvis, озвучка)-Описание:
Когда мир Старка рушится на его глазах по вине неизвестных противников, Тони жаждет найти виновных и свести с ними счеты. Оказавшись в безвыходной ситуации, Старк может рассчитывать только на себя и свою изобретательность, чтобы защитить тех, кто ему дорог. Это становится настоящим испытанием для героя, которому придется не только сражаться с коварным врагом, но и разобраться в себе, чтобы найти ответ на вопрос, который давно его тревожит: что важнее - человек или костюм?-Рейтинг
-Релиз by: -Качество: BDRip 1080p / 60 FPS
Формат: MKV
Видео кодек: AVC
Аудио кодек:AC3
Видео: AVC, 1920x800 (2.40:1), 14000 kbps, 59,940 fps, 0,152 bpp
Аудио №1: русский / AC3 / 5.1 / 48 kHz / 640 kbps / 16 bit |Дубляж|
Аудио №2: английский / AC3 / 5.1 / 48 kHz / 640 kbps / 16 bit
Навигация по главам: есть- -

MI

General
Unique ID : 175804122553711193574431304688004402714 (0x8442A474261E5F83894F2AD8164E8E1A)
Complete name : A:\Фильмы\1080p\Железный человек 1080p 60fps R.G. HD-Films\Железный человек 3.mkv
Format : Matroska
Format version : Version 4 / Version 2
File size : 13.9 GiB
Duration : 2h 10mn
Overall bit rate : 15.3 Mbps
Movie name : Tiberiumsun69
Encoded date : UTC 2015-06-23 14:10:09
Writing application : mkvmerge v7.9.0 ('Birds') 64bit
Writing library : libebml v1.3.1 + libmatroska v1.4.2
Attachment : Yes
Video
ID : 1
Format : AVC
Format/Info : Advanced Video Codec
Format profile : High@L4.1
Format settings, CABAC : Yes
Format settings, ReFrames : 4 frames
Codec ID : V_MPEG4/ISO/AVC
Duration : 2h 10mn
Bit rate : 14.0 Mbps
Width : 1 920 pixels
Height : 800 pixels
Display aspect ratio : 2.40:1
Frame rate : 59.940 fps
Color space : YUV
Chroma subsampling : 4:2:0
Bit depth : 8 bits
Scan type : Progressive
Bits/(Pixel*Frame) : 0.152
Stream size : 12.5 GiB (90%)
Title : Tiberiumsun69
Writing library : x264 core 146 r2538 121396c
Encoding settings : cabac=1 / ref=4 / deblock=1:0:0 / analyse=0x3:0x113 / me=umh / subme=9 / psy=1 / psy_rd=1.00:0.10 / mixed_ref=1 / me_range=32 / chroma_me=1 / trellis=2 / 8x8dct=1 / cqm=0 / deadzone=21,11 / fast_pskip=0 / chroma_qp_offset=-3 / threads=12 / lookahead_threads=3 / sliced_threads=0 / nr=0 / decimate=1 / interlaced=0 / bluray_compat=0 / constrained_intra=0 / bframes=16 / b_pyramid=2 / b_adapt=2 / b_bias=0 / direct=3 / weightb=1 / open_gop=0 / weightp=2 / keyint=600 / keyint_min=59 / scenecut=40 / intra_refresh=0 / rc_lookahead=60 / rc=2pass / mbtree=1 / bitrate=14000 / ratetol=1.0 / qcomp=0.60 / qpmin=0 / qpmax=69 / qpstep=4 / cplxblur=20.0 / qblur=0.5 / vbv_maxrate=50000 / vbv_bufsize=62500 / nal_hrd=none / filler=0 / ip_ratio=1.40 / aq=1:1.00
Language : English
Default : Yes
Forced : No
Audio #1
ID : 2
Format : AC-3
Format/Info : Audio Coding 3
Mode extension : CM (complete main)
Codec ID : A_AC3
Duration : 2h 10mn
Bit rate mode : Constant
Bit rate : 640 Kbps
Channel(s) : 6 channels
Channel positions : Front: L C R, Side: L R, LFE
Sampling rate : 48.0 KHz
Bit depth : 16 bits
Compression mode : Lossy
Stream size : 598 MiB (4%)
Title : Дубляж
Language : Russian
Default : Yes
Forced : No
Audio #2
ID : 3
Format : AC-3
Format/Info : Audio Coding 3
Mode extension : CM (complete main)
Codec ID : A_AC3
Duration : 2h 10mn
Bit rate mode : Constant
Bit rate : 640 Kbps
Channel(s) : 6 channels
Channel positions : Front: L C R, Side: L R, LFE
Sampling rate : 48.0 KHz
Bit depth : 16 bits
Compression mode : Lossy
Stream size : 598 MiB (4%)
Title : Оригинал
Language : English
Default : No
Forced : No
Text #1
ID : 4
Format : UTF-8
Codec ID : S_TEXT/UTF8
Codec ID/Info : UTF-8 Plain Text
Title : Форсированные
Language : Russian
Default : Yes
Forced : No
Text #2
ID : 5
Format : UTF-8
Codec ID : S_TEXT/UTF8
Codec ID/Info : UTF-8 Plain Text
Title : Полные
Language : Russian
Default : No
Forced : No
Text #3
ID : 6
Format : UTF-8
Codec ID : S_TEXT/UTF8
Codec ID/Info : UTF-8 Plain Text
Title : Полные
Language : English
Default : No
Forced : No
Menu
00:00:00.000 : en:New Year's Eve, 1999
00:04:52.750 : en:R60 Department
00:07:55.433 : en:The Mandarin
00:12:12.440 : en:Killian Returns
00:19:04.101 : en:Tony & Pepper at Home
00:23:47.884 : en:Happy Follows Savin
00:29:47.702 : en:House Attack
00:39:46.384 : en:Rose Hill, Tennessee
00:45:56.044 : en:Unraveling the Past
00:59:19.639 : en:The Mandarin Teaches a Lesson
01:01:56.921 : en:Tony Hacks A.I.M.
01:09:24.451 : en:Locating the Mandarin
01:18:41.508 : en:Captured by Killian
01:23:52.944 : en:Attack on Air Force One
01:37:55.995 : en:Showdown at the Docks
01:56:18.304 : en:New Beginnings
01:59:38.754 : en:End Credits

Скриншоты

-


Последний раз редактировалось: bot (2016-07-25 09:46), всего редактировалось 2 раз(а)

[Цитировать]
envy

3072keyint=600 / keyint_min=59
Еще раз!!!!
Для тех кто в танке!!!!
Выше keyint=250 / keyint_min=25 ставить бессполезно!!!
Вы только увеличиваете тот вариант что эта раздача не запустится на телевизионных плеерах корректно!!!!

[Цитировать]
Kryl

3076
3072keyint=600 / keyint_min=59
Еще раз!!!!
Для тех кто в танке!!!!
Выше keyint=250 / keyint_min=25 ставить бессполезно!!!
Вы только увеличиваете тот вариант что эта раздача не запустится на телевизионных плеерах корректно!!!!
Резидент не автор ...

[Цитировать]
envy

KRYL, Я знаю....
просто тибериуму пофиг.. он гений же)))
может здесь люди увидят)))

[Цитировать]
BOT2

Насчет некорректного запуска жалуются по факту 1 из 50 грубо говоря. Что наводит на мысль что у человека банально железо не тянет 60fps в 1080p.

[Цитировать]
Alexey

интересный релиз

[Цитировать]
markito73

thanks friend :)

[Цитировать]
BliTz

спасибо^^
 
Показать сообщения:    

Текущее время: 05-Дек 01:25

Часовой пояс: UTC + 3


Вы не можете начинать темы
Вы не можете отвечать на сообщения
Вы не можете редактировать свои сообщения
Вы не можете удалять свои сообщения
Вы не можете голосовать в опросах
Вы не можете прикреплять файлы к сообщениям
Вы не можете скачивать файлы