[Цитировать]
BOT2

Жандарм из Сен-Тропе

Жандарм из Сен-Тропе / Le gendarme de Saint-Tropez
-Год выпуска: 1964
Страна: Франция, Италия
Жанр: комедия, криминал
Продолжительность: 01:39:13
Перевод: Профессиональный многоголосый
Субтитры: русские (Полные)-Режиссер: Жан Жиро / Jean Girault-В ролях: Луи де Фюнес (Marechal des logis-chef Ludovic Cruchot), Женевьев Град (Nicole Cruchot), Мишель Галабрю (Adjudant Jerome Gerber), Даниэль Коши (Richard), Мадлен Делавэвр (Une estivante / woman on holiday), Мария Паком (Mme Lareine Leroy), Клод Пьеплю (Boisselier), Габриэле Тинти (Gangster chauffeur), Мишель Варнье, Кристиан Марен (Marechal des Logis Albert Merlot), Жан Лефевр (Marechal des Logis Lucien Fougasse), Жан-Пьер Бертран (Eddie)-Описание:
Получив повышение, в уютный курортный городок Сен-Тропе приезжает бравый жандарм Крюшо с красоткой-дочерью Николь. Добрые, но недотепистые местные жандармы с радостью принимают Крюшо в свой круг. Но их радость быстро проходит: не такой добряк, но еще более придурковатый Крюшо с рвением бросается на защиту закона даже тогда, когда закон в его защите не нуждается.
С приездом в Сен-Тропе жандарма Крюшо «мирная» жизнь городка заканчивается: охота на нудистов, поиски украденной из музея бесценной картины, поимка банды опасных преступников - бестолковому жандарму всегда найдется занятие. Да и за легкомысленной Николь нужен глаз да глаз...- -Релиз by:
Качество: BDRip-AVC 60fps
Формат: MKV
Видео кодек: AVC
Аудио кодек:AC3
Видео: AVC, 1024x432 (2.35:1), 4000 kbps, 59,997 fps, 0,151 bpp
Аудио: русский / AC3 / 2.0 / 48 kHz / 192 kbps / 16 bit |Многоголосый, закадровый|
Навигация по главам: есть- -

MI

General
Unique ID : 246393057888322754309702228259797446174 (0xB95D93AAF9AC6C68A6E0538FF96BAE1E)
Complete name : A:\Жандарм из Сен-Тропе BDRip-AVC 60fps\Жандарм 1 Из Сен-Тропе.mkv
Format : Matroska
Format version : Version 4 / Version 2
File size : 2.91 GiB
Duration : 1h 39mn
Overall bit rate : 4 197 Kbps
Movie name : R.G HD-Films by Tiberiumsun69
Encoded date : UTC 2015-05-27 12:16:59
Writing application : mkvmerge v7.9.0 ('Birds') 64bit
Writing library : libebml v1.3.1 + libmatroska v1.4.2
Attachment : Yes
Video
ID : 1
Format : AVC
Format/Info : Advanced Video Codec
Format profile : High@L4.1
Format settings, CABAC : Yes
Format settings, ReFrames : 4 frames
Codec ID : V_MPEG4/ISO/AVC
Duration : 1h 39mn
Bit rate : 4 000 Kbps
Width : 1 024 pixels
Height : 432 pixels
Display aspect ratio : 2.35:1
Frame rate : 59.997 fps
Color space : YUV
Chroma subsampling : 4:2:0
Bit depth : 8 bits
Scan type : Progressive
Bits/(Pixel*Frame) : 0.151
Stream size : 2.72 GiB (93%)
Title : R.G HD-Films by Tiberiumsun69
Writing library : x264 core 146 r2538 121396c
Encoding settings : cabac=1 / ref=4 / deblock=1:0:0 / analyse=0x3:0x113 / me=umh / subme=11 / psy=1 / psy_rd=1.00:0.10 / mixed_ref=1 / me_range=32 / chroma_me=1 / trellis=2 / 8x8dct=1 / cqm=0 / deadzone=21,11 / fast_pskip=0 / chroma_qp_offset=-3 / threads=12 / lookahead_threads=1 / sliced_threads=0 / nr=0 / decimate=1 / interlaced=0 / bluray_compat=0 / constrained_intra=0 / bframes=3 / b_pyramid=2 / b_adapt=2 / b_bias=0 / direct=3 / weightb=1 / open_gop=0 / weightp=2 / keyint=600 / keyint_min=59 / scenecut=40 / intra_refresh=0 / rc_lookahead=60 / rc=2pass / mbtree=1 / bitrate=4000 / ratetol=1.0 / qcomp=0.60 / qpmin=0 / qpmax=69 / qpstep=4 / cplxblur=20.0 / qblur=0.5 / vbv_maxrate=50000 / vbv_bufsize=62500 / nal_hrd=none / filler=0 / ip_ratio=1.40 / aq=1:1.00
Language : English
Default : Yes
Forced : No
Audio
ID : 2
Format : AC-3
Format/Info : Audio Coding 3
Format profile : Dolby Digital
Mode extension : CM (complete main)
Codec ID : A_AC3
Duration : 1h 39mn
Bit rate mode : Constant
Bit rate : 192 Kbps
Channel(s) : 2 channels
Channel positions : Front: L R
Sampling rate : 48.0 KHz
Bit depth : 16 bits
Compression mode : Lossy
Stream size : 136 MiB (5%)
Title : Многоголосый, закадровый
Language : Russian
Default : Yes
Forced : No
Text
ID : 3
Format : UTF-8
Codec ID : S_TEXT/UTF8
Codec ID/Info : UTF-8 Plain Text
Title : Полные
Language : Russian
Default : No
Forced : No
Menu
00:00:00.000 : en:Chapter 1
00:09:05.458 : en:Chapter 2
00:16:55.916 : en:Chapter 3
00:25:09.750 : en:Chapter 4
00:33:30.541 : en:Chapter 5
00:42:18.875 : en:Chapter 6
00:50:18.041 : en:Chapter 7
00:59:56.666 : en:Chapter 8
01:07:00.166 : en:Chapter 9
01:15:11.125 : en:Chapter 10
01:26:04.333 : en:Chapter 11
01:32:35.791 : en:Chapter 12

Скриншоты

Жандарм в Нью-Йорке

Жандарм в Нью-Йорке / Le gendarme a New York
-Год выпуска: 1965
Страна: Франция, Италия
Жанр: комедия
Продолжительность: 01:41:48
Перевод: Дубляж
Субтитры: русские (Полные)-Режиссер: Жан Жиро / Jean Girault-В ролях: Луи де Фюнес (Marechal des logis-chef Ludovic Cruchot), Мишель Галабрю (Adjudant Jerome Gerber), Кристиан Марен (Marechal des Logis Albert Merlot), Ги Гроссо (Marechal des Logis Tricard), Мишель Модо (Marechal des Logis Berlicot), Алан Скотт (Franck), Жан Лефевр (Marechal des Logis Lucien Fougasse), Женевьев Град (Nicole Cruchot), Марино Мазе (Aldo), Марио Пизу (L'adjudant Renzo), Альбер Ожье (Le presentateur de la publicite), Жан-Пьер Бертран (Le copain de Nicole)-Описание:
Дружная бригада французских полицейских отправляется в Нью-Йорк, где им поручено представлять Францию на международном конгрессе полицейских. Крюшо, Мерло, Фугас, Трикар и Берлико во главе с сержантом Жербером пускаются в дальний путь.
Как не уронить чести мундира, если вас ждет страна соблазнов, да и по-английски вы не знаете ни слова? К тому же Крюшо с ужасом обнаруживает, что его дочь Николь, вопреки воле отца, зайцем отправляется в Нью - Йорк на поиски мужчины своей жизни. Если это откроется - его карьере конец...- -Релиз by:
Качество: BDRip-AVC 60fps
Формат: MKV
Видео кодек: AVC
Аудио кодек:AC3
Видео: AVC, 1024x432 (2.35:1), 4000 kbps, 59,997 fps, 0,151 bpp
Аудио: русский / AC3 / 2.0 / 48 kHz / 192 kbps / 16 bit |Дубляж|
Навигация по главам: есть- -

MI

General
Unique ID : 180024190985186780938885275866888035989 (0x876F65E432320B4D93B749E6ABFE5E95)
Complete name : A:\Жандарм из Сен-Тропе BDRip-AVC 60fps\Жандарм 2 В Нью-Йорке.mkv
Format : Matroska
Format version : Version 4 / Version 2
File size : 2.98 GiB
Duration : 1h 41mn
Overall bit rate : 4 196 Kbps
Movie name : R.G HD-Films by Tiberiumsun69
Encoded date : UTC 2015-05-27 12:34:42
Writing application : mkvmerge v7.9.0 ('Birds') 64bit
Writing library : libebml v1.3.1 + libmatroska v1.4.2
Attachment : Yes
Video
ID : 1
Format : AVC
Format/Info : Advanced Video Codec
Format profile : High@L4.1
Format settings, CABAC : Yes
Format settings, ReFrames : 4 frames
Codec ID : V_MPEG4/ISO/AVC
Duration : 1h 41mn
Bit rate : 4 000 Kbps
Width : 1 024 pixels
Height : 432 pixels
Display aspect ratio : 2.35:1
Frame rate : 59.997 fps
Color space : YUV
Chroma subsampling : 4:2:0
Bit depth : 8 bits
Scan type : Progressive
Bits/(Pixel*Frame) : 0.151
Stream size : 2.79 GiB (93%)
Title : R.G HD-Films by Tiberiumsun69
Writing library : x264 core 146 r2538 121396c
Encoding settings : cabac=1 / ref=4 / deblock=1:0:0 / analyse=0x3:0x113 / me=umh / subme=11 / psy=1 / psy_rd=1.00:0.10 / mixed_ref=1 / me_range=32 / chroma_me=1 / trellis=2 / 8x8dct=1 / cqm=0 / deadzone=21,11 / fast_pskip=0 / chroma_qp_offset=-3 / threads=12 / lookahead_threads=1 / sliced_threads=0 / nr=0 / decimate=1 / interlaced=0 / bluray_compat=0 / constrained_intra=0 / bframes=3 / b_pyramid=2 / b_adapt=2 / b_bias=0 / direct=3 / weightb=1 / open_gop=0 / weightp=2 / keyint=600 / keyint_min=59 / scenecut=40 / intra_refresh=0 / rc_lookahead=60 / rc=2pass / mbtree=1 / bitrate=4000 / ratetol=1.0 / qcomp=0.60 / qpmin=0 / qpmax=69 / qpstep=4 / cplxblur=20.0 / qblur=0.5 / vbv_maxrate=50000 / vbv_bufsize=62500 / nal_hrd=none / filler=0 / ip_ratio=1.40 / aq=1:1.00
Language : English
Default : Yes
Forced : No
Audio
ID : 2
Format : AC-3
Format/Info : Audio Coding 3
Format profile : Dolby Digital
Mode extension : CM (complete main)
Codec ID : A_AC3
Duration : 1h 41mn
Bit rate mode : Constant
Bit rate : 192 Kbps
Channel(s) : 2 channels
Channel positions : Front: L R
Sampling rate : 48.0 KHz
Bit depth : 16 bits
Compression mode : Lossy
Stream size : 140 MiB (5%)
Title : Дубляж
Language : Russian
Default : Yes
Forced : No
Text
ID : 3
Format : UTF-8
Codec ID : S_TEXT/UTF8
Codec ID/Info : UTF-8 Plain Text
Title : Полные
Language : Russian
Default : No
Forced : No
Menu
00:00:00.000 : en:Chapter 1
00:08:30.916 : en:Chapter 2
00:17:17.083 : en:Chapter 3
00:24:51.083 : en:Chapter 4
00:34:03.166 : en:Chapter 5
00:40:10.291 : en:Chapter 6
00:52:06.291 : en:Chapter 7
01:00:44.041 : en:Chapter 8
01:06:47.583 : en:Chapter 9
01:15:35.541 : en:Chapter 10
01:23:16.416 : en:Chapter 11
01:31:39.250 : en:Chapter 12

Скриншоты

Жандарм женится

Жандарм женится / Le gendarme se marie
-Год выпуска: 1968
Страна: Франция, Италия
Жанр: комедия
Продолжительность: 01:29:18
Перевод: Дубляж
Субтитры: русские (Полные)-Режиссер: Жан Жиро / Jean Girault-В ролях: Луи де Фюнес (Marechal des Logis-chef Ludovic Cruchot), Жан Лефевр (Marechal des Logis Lucien Fougasse), Женевьев Град (Nicole Cruchot), Кристиан Марен (Marechal des Logis Albert Merlot), Ив Венсан (Le colonel), Ги Гроссо (Marechal des Logis Berlicot), Мишель Модо (Marechal des Logis Tricard), Маурицио Бонулья (L'ami de Nicole / Nicole's Fiance), Марио Давид (Le malfrat), Клоди Жансак (Josepha Cruchot), Мишель Галабрю (Adjudant Jerome Gerber), Николь Вервиль (Mme Gerber)-Описание:
Пробил долгожданный «Час Икс». На календаре у старшины жандармов первое июля, а это значит, что во Франции настало время всеобщих отпусков.
Толпы обезумевших от жажды развлечений туристов ринулись к морю, и наши старые знакомые - блюстители порядка из курортного Сен-Тропе - должны во что бы то ни стало, любой ценой сдержать бурный натиск отдыхающих.
И вот, за отчаянно-быструю езду по горным дорогам Крюшо арестовывает очаровательную Жозефу, которая оказывается вдовой полковника жандармерии.- -Релиз by:
Качество: BDRip-AVC 60fps
Формат: MKV
Видео кодек: AVC
Аудио кодек:AC3
Видео: AVC, 1024x432 (2.35:1), 4000 kbps, 59,997 fps, 0,151 bpp
Аудио: русский / AC3 / 2.0 / 48 kHz / 192 kbps / 16 bit |Дубляж|
Навигация по главам: есть- -

MI

General
Unique ID : 216180523437942989267431287671255639355 (0xA2A2DAB69107D68E8E04611DF49EA53B)
Complete name : A:\Жандарм из Сен-Тропе BDRip-AVC 60fps\Жандарм 3 Женится.mkv
Format : Matroska
Format version : Version 4 / Version 2
File size : 2.62 GiB
Duration : 1h 29mn
Overall bit rate : 4 200 Kbps
Movie name : R.G HD-Films by Tiberiumsun69
Encoded date : UTC 2015-05-27 13:07:23
Writing application : mkvmerge v7.9.0 ('Birds') 64bit
Writing library : libebml v1.3.1 + libmatroska v1.4.2
Attachment : Yes
Video
ID : 1
Format : AVC
Format/Info : Advanced Video Codec
Format profile : High@L4.1
Format settings, CABAC : Yes
Format settings, ReFrames : 4 frames
Codec ID : V_MPEG4/ISO/AVC
Duration : 1h 29mn
Bit rate : 4 000 Kbps
Width : 1 024 pixels
Height : 432 pixels
Display aspect ratio : 2.35:1
Frame rate : 59.997 fps
Color space : YUV
Chroma subsampling : 4:2:0
Bit depth : 8 bits
Scan type : Progressive
Bits/(Pixel*Frame) : 0.151
Stream size : 2.45 GiB (93%)
Writing library : x264 core 146 r2538 121396c
Encoding settings : cabac=1 / ref=4 / deblock=1:0:0 / analyse=0x3:0x113 / me=umh / subme=11 / psy=1 / psy_rd=1.00:0.10 / mixed_ref=1 / me_range=32 / chroma_me=1 / trellis=2 / 8x8dct=1 / cqm=0 / deadzone=21,11 / fast_pskip=0 / chroma_qp_offset=-3 / threads=12 / lookahead_threads=1 / sliced_threads=0 / nr=0 / decimate=1 / interlaced=0 / bluray_compat=0 / constrained_intra=0 / bframes=3 / b_pyramid=2 / b_adapt=2 / b_bias=0 / direct=3 / weightb=1 / open_gop=0 / weightp=2 / keyint=600 / keyint_min=59 / scenecut=40 / intra_refresh=0 / rc_lookahead=60 / rc=2pass / mbtree=1 / bitrate=4000 / ratetol=1.0 / qcomp=0.60 / qpmin=0 / qpmax=69 / qpstep=4 / cplxblur=20.0 / qblur=0.5 / vbv_maxrate=50000 / vbv_bufsize=62500 / nal_hrd=none / filler=0 / ip_ratio=1.40 / aq=1:1.00
Language : English
Default : Yes
Forced : No
Audio
ID : 2
Format : AC-3
Format/Info : Audio Coding 3
Format profile : Dolby Digital
Mode extension : CM (complete main)
Codec ID : A_AC3
Duration : 1h 29mn
Bit rate mode : Constant
Bit rate : 192 Kbps
Channel(s) : 2 channels
Channel positions : Front: L R
Sampling rate : 48.0 KHz
Bit depth : 16 bits
Compression mode : Lossy
Stream size : 123 MiB (5%)
Title : Дубляж
Language : Russian
Default : Yes
Forced : No
Text
ID : 3
Format : UTF-8
Codec ID : S_TEXT/UTF8
Codec ID/Info : UTF-8 Plain Text
Title : Полные
Language : Russian
Default : No
Forced : No
Menu
00:00:00.000 : en:Chapter 1
00:08:47.000 : en:Chapter 2
00:20:16.875 : en:Chapter 3
00:24:52.875 : en:Chapter 4
00:34:28.375 : en:Chapter 5
00:42:13.125 : en:Chapter 6
00:50:15.541 : en:Chapter 7
00:58:03.875 : en:Chapter 8
01:06:03.000 : en:Chapter 9
01:15:34.041 : en:Chapter 10
01:20:01.291 : en:Chapter 11
01:24:57.541 : en:Chapter 12

Скриншоты

Жандарм на отдыхе

Жандарм на отдыхе / Le gendarme en balade
-Год выпуска: 1970
Страна: Италия, Франция
Жанр: комедия
Продолжительность: 01:40:21
Перевод: Профессиональный многоголосый
Субтитры: русские (Полные)-Режиссер: Жан Жиро / Jean Girault-В ролях: Луи де Фюнес (Marechal des logis-chef Ludovic Cruchot), Мишель Галабрю (Adjudant Jerome Gerber), Жан Лефевр (Marechal des Logis Lucien Fougasse), Ги Гроссо (Marechal des Logis Tricard), Мишель Модо (Marechal des Logis Berlicot), Николь Вервиль (Mme Gerber), Франс Румилли (La mere superieure), Ив Венсан (Le colonel de gendarmerie examinateur), Кристиан Марен (Marechal des Logis Albert Merlot), Клоди Жансак (Josepha Cruchot), Сара Франкетти (Soeur Marie-Benedicte), Уго Фангареджи (Un hippie)-Описание:
Всему приходит конец. Начальство сочло наших героев слишком старыми и отправило их на заслуженный отдых. Это трагический момент в жизни такого мужественного офицера как сержант Крюшо.
Запершись в роскошном замке своей жены, он предается унынию. Приезд бывшего начальника Жербера выводит его из спячки. Они собирают своих подчиненных, надевают любимую жандармскую форму и отправляются навстречу новым подвигам.- -Релиз by:
Качество: BDRip-AVC 60fps
Формат: MKV
Видео кодек: AVC
Аудио кодек:AC3
Видео: AVC, 1024x432 (2.35:1), 4000 kbps, 59,997 fps, 0,151 bpp
Аудио: русский / AC3 / 2.0 / 48 kHz / 192 kbps / 16 bit |Многоголосый, закадровый|
Навигация по главам: есть- -

MI

General
Unique ID : 179164709362853945159061564026242423727 (0x86C9DE2CFC7AB2F5AD62476C63DB5BAF)
Complete name : A:\Жандарм из Сен-Тропе BDRip-AVC 60fps\Жандарм 4 На отдыхе.mkv
Format : Matroska
Format version : Version 4 / Version 2
File size : 2.94 GiB
Duration : 1h 40mn
Overall bit rate : 4 200 Kbps
Movie name : R.G HD-Films by Tiberiumsun69
Encoded date : UTC 2015-05-27 13:27:36
Writing application : mkvmerge v7.9.0 ('Birds') 64bit
Writing library : libebml v1.3.1 + libmatroska v1.4.2
Attachment : Yes
Video
ID : 1
Format : AVC
Format/Info : Advanced Video Codec
Format profile : High@L4.1
Format settings, CABAC : Yes
Format settings, ReFrames : 4 frames
Codec ID : V_MPEG4/ISO/AVC
Duration : 1h 40mn
Bit rate : 4 000 Kbps
Width : 1 024 pixels
Height : 432 pixels
Display aspect ratio : 2.35:1
Frame rate : 59.997 fps
Color space : YUV
Chroma subsampling : 4:2:0
Bit depth : 8 bits
Scan type : Progressive
Bits/(Pixel*Frame) : 0.151
Stream size : 2.75 GiB (93%)
Title : R.G HD-Films by Tiberiumsun69
Writing library : x264 core 146 r2538 121396c
Encoding settings : cabac=1 / ref=4 / deblock=1:0:0 / analyse=0x3:0x113 / me=umh / subme=11 / psy=1 / psy_rd=1.00:0.10 / mixed_ref=1 / me_range=32 / chroma_me=1 / trellis=2 / 8x8dct=1 / cqm=0 / deadzone=21,11 / fast_pskip=0 / chroma_qp_offset=-3 / threads=12 / lookahead_threads=1 / sliced_threads=0 / nr=0 / decimate=1 / interlaced=0 / bluray_compat=0 / constrained_intra=0 / bframes=3 / b_pyramid=2 / b_adapt=2 / b_bias=0 / direct=3 / weightb=1 / open_gop=0 / weightp=2 / keyint=600 / keyint_min=59 / scenecut=40 / intra_refresh=0 / rc_lookahead=60 / rc=2pass / mbtree=1 / bitrate=4000 / ratetol=1.0 / qcomp=0.60 / qpmin=0 / qpmax=69 / qpstep=4 / cplxblur=20.0 / qblur=0.5 / vbv_maxrate=50000 / vbv_bufsize=62500 / nal_hrd=none / filler=0 / ip_ratio=1.40 / aq=1:1.00
Language : English
Default : Yes
Forced : No
Audio
ID : 2
Format : AC-3
Format/Info : Audio Coding 3
Format profile : Dolby Digital
Mode extension : CM (complete main)
Codec ID : A_AC3
Duration : 1h 40mn
Bit rate mode : Constant
Bit rate : 192 Kbps
Channel(s) : 2 channels
Channel positions : Front: L R
Sampling rate : 48.0 KHz
Bit depth : 16 bits
Compression mode : Lossy
Stream size : 138 MiB (5%)
Title : Многоголосый, закадровый
Language : Russian
Default : Yes
Forced : No
Text
ID : 3
Format : UTF-8
Codec ID : S_TEXT/UTF8
Codec ID/Info : UTF-8 Plain Text
Title : Полные
Language : Russian
Default : No
Forced : No
Menu
00:00:00.000 : en:Chapter 1
00:08:16.041 : en:Chapter 2
00:18:33.083 : en:Chapter 3
00:25:04.625 : en:Chapter 4
00:34:39.791 : en:Chapter 5
00:44:11.250 : en:Chapter 6
00:47:57.083 : en:Chapter 7
00:58:07.791 : en:Chapter 8
01:07:58.625 : en:Chapter 9
01:16:43.250 : en:Chapter 10
01:26:33.333 : en:Chapter 11
01:36:35.791 : en:Chapter 12

Скриншоты

Жандарм и инопланетяне

Жандарм и инопланетяне / Le gendarme et les extra-terrestres
-Год выпуска: 1978
Страна: Франция
Жанр: фантастика, комедия, криминал
Продолжительность: 01:31:38
Перевод: Профессиональный многоголосый
Субтитры: русские (Полные)-Режиссер: Жан Жиро / Jean Girault-В ролях: Луи де Фюнес (Marechal des Logis-chef Ludovic Cruchot), Мишель Галабрю (Adjudant Jerome Gerber), Морис Риш (Marechal des Logis Beaupied), Жан-Пьер Рамбаль (Marechal des Logis Taupin), Ги Гроссо (Marechal des Logis Tricard), Мишель Модо (Marechal des Logis Berlicot), Франс Румилли (Soeur Clotilde), Жан-Роже Коссимон (L'eveque), Марио Давид (Le voleur du bidon d'huile), Жак Франсуа (Le colonel), Мария Мобан (Josefa Cruchot), Мадлен Делавэвр (Soeur kepi Gerber)-Описание:
Все земные враги уже побеждены бесстрашным отрядом жандармов и их сержантом Крюшо. Осталось помериться силами с пришельцами. И они действительно высаживаются в окрестностях Сен-Тропеза. Коварные существа не выступают в своем истинном злобном обличье.
Они принимают вид самих жандармов, отличаясь от людей только тем, что пьют масло и ржавеют от воды... Это приводит к бесчисленным комическим ситуациям и неизвестно, что бы случилось с землей, если бы не доходящее до идиотизма мужество сержанта Крюшо.- -Релиз by:
Качество: BDRip-AVC 60fps
Формат: MKV
Видео кодек: AVC
Аудио кодек:AC3
Видео: AVC, 960x576 (1.667), 5000 kbps, 59,997 fps, 0,151 bpp
Аудио: русский / AC3 / 2.0 / 48 kHz / 192 kbps / 16 bit |Многоголосый, закадровый|
Навигация по главам: есть- -

MI

General
Unique ID : 248014316844439535477712730859065952019 (0xBA95D1E7E6182F4AA545A9B2C7C9C713)
Complete name : A:\Жандарм из Сен-Тропе BDRip-AVC 60fps\Жандарм 5 И инопланетяни.mkv
Format : Matroska
Format version : Version 4 / Version 2
File size : 3.33 GiB
Duration : 1h 31mn
Overall bit rate : 5 197 Kbps
Movie name : R.G HD-Films by Tiberiumsun69
Encoded date : UTC 2015-05-27 13:49:00
Writing application : mkvmerge v7.9.0 ('Birds') 64bit
Writing library : libebml v1.3.1 + libmatroska v1.4.2
Attachment : Yes
Video
ID : 1
Format : AVC
Format/Info : Advanced Video Codec
Format profile : High@L4.1
Format settings, CABAC : Yes
Format settings, ReFrames : 4 frames
Codec ID : V_MPEG4/ISO/AVC
Duration : 1h 31mn
Bit rate : 5 000 Kbps
Width : 960 pixels
Height : 576 pixels
Display aspect ratio : 1.667
Frame rate : 59.997 fps
Color space : YUV
Chroma subsampling : 4:2:0
Bit depth : 8 bits
Scan type : Progressive
Bits/(Pixel*Frame) : 0.151
Stream size : 3.14 GiB (94%)
Title : R.G HD-Films by Tiberiumsun69
Writing library : x264 core 146 r2538 121396c
Encoding settings : cabac=1 / ref=4 / deblock=1:0:0 / analyse=0x3:0x113 / me=umh / subme=11 / psy=1 / psy_rd=1.00:0.10 / mixed_ref=1 / me_range=32 / chroma_me=1 / trellis=2 / 8x8dct=1 / cqm=0 / deadzone=21,11 / fast_pskip=0 / chroma_qp_offset=-3 / threads=12 / lookahead_threads=1 / sliced_threads=0 / nr=0 / decimate=1 / interlaced=0 / bluray_compat=0 / constrained_intra=0 / bframes=3 / b_pyramid=2 / b_adapt=2 / b_bias=0 / direct=3 / weightb=1 / open_gop=0 / weightp=2 / keyint=600 / keyint_min=59 / scenecut=40 / intra_refresh=0 / rc_lookahead=60 / rc=2pass / mbtree=1 / bitrate=5000 / ratetol=1.0 / qcomp=0.60 / qpmin=0 / qpmax=69 / qpstep=4 / cplxblur=20.0 / qblur=0.5 / vbv_maxrate=50000 / vbv_bufsize=62500 / nal_hrd=none / filler=0 / ip_ratio=1.40 / aq=1:1.00
Language : English
Default : Yes
Forced : No
Audio
ID : 2
Format : AC-3
Format/Info : Audio Coding 3
Format profile : Dolby Digital
Mode extension : CM (complete main)
Codec ID : A_AC3
Duration : 1h 31mn
Bit rate mode : Constant
Bit rate : 192 Kbps
Channel(s) : 2 channels
Channel positions : Front: L R
Sampling rate : 48.0 KHz
Bit depth : 16 bits
Compression mode : Lossy
Stream size : 126 MiB (4%)
Title : Многоголосый, закадровый
Language : Russian
Default : Yes
Forced : No
Text
ID : 3
Format : UTF-8
Codec ID : S_TEXT/UTF8
Codec ID/Info : UTF-8 Plain Text
Title : Полные
Language : Russian
Default : No
Forced : No
Menu
00:00:00.000 : en:Chapter 1
00:08:17.791 : en:Chapter 2
00:16:47.750 : en:Chapter 3
00:24:34.583 : en:Chapter 4
00:32:16.041 : en:Chapter 5
00:39:35.083 : en:Chapter 6
00:44:23.375 : en:Chapter 7
00:50:34.666 : en:Chapter 8
00:59:43.833 : en:Chapter 9
01:07:45.375 : en:Chapter 10
01:15:13.708 : en:Chapter 11
01:21:01.000 : en:Chapter 12

Скриншоты

Жандарм и жандарметки

Жандарм и жандарметки / Le gendarme et les gendarmettes
-Год выпуска: 1982
Страна: Франция
Жанр: комедия, криминал
Продолжительность: 01:38:43
Перевод: Профессиональный многоголосый
Субтитры: Нет-Режиссер: Жан Жиро / Jean Girault-В ролях: Луи де Фюнес (Marechal des Logis-chef Ludovic Cruchot), Мишель Галабрю (Adjudant Jerome Gerber), Морис Риш (Marechal des Logis Beaupied), Жак Франсуа (Le colonel), Ги Гроссо (Marechal des Logis Tricard), Мишель Модо (Marechal des Logis Berlicot), Патрик Прежан (Marechal des Logis Perlin), Франс Румилли (La mere superieure), Катрин Серр (Christine Rocourt), Никес Жан-Луи (Yo Macumba), Софи Мико (Isabelle Leroy), Элизабет Этьен (Marianne Bonnet)-Описание:
Новые времена - новые нравы. В жандармерию присылают четырех стажеров - девушек с ногами от шеи. Наши герои приходят в приятное волнение, а их жены - в исступление. Седина в бороду, бес в ребро.
Как назло, девушек похищают неизвестные злодеи. Честь мундира висит на волоске. Пройдя через цепь невероятных комедийных и фривольных ситуаций, наши герои нейтрализуют целое шпионское гнездо и вызволяют из плена красавиц - жандарметок.- -Релиз by:
Качество: BDRip-AVC
Формат: MKV
Видео кодек: AVC
Аудио кодек:AC3
Видео: AVC, 960x576 (1.667), 5000 kbps, 59,997 fps, 0,151 bpp
Аудио: русский / AC3 / 2.0 / 48 kHz / 192 kbps / 16 bit |Многоголосый, закадровый|
Навигация по главам: есть- -

MI

General
Unique ID : 234985686651125663613278049303864224653 (0xB0C898D7C4F7F1E097DEBEBCDAB32B8D)
Complete name : A:\Жандарм из Сен-Тропе BDRip-AVC 60fps\Жандарм 6 И жандарметки.mkv
Format : Matroska
Format version : Version 4 / Version 2
File size : 3.58 GiB
Duration : 1h 38mn
Overall bit rate : 5 197 Kbps
Movie name : R.G HD-Films by Tiberiumsun69
Encoded date : UTC 2015-05-28 13:43:49
Writing application : mkvmerge v7.9.0 ('Birds') 64bit
Writing library : libebml v1.3.1 + libmatroska v1.4.2
Attachment : Yes
Video
ID : 1
Format : AVC
Format/Info : Advanced Video Codec
Format profile : High@L4.1
Format settings, CABAC : Yes
Format settings, ReFrames : 4 frames
Codec ID : V_MPEG4/ISO/AVC
Duration : 1h 38mn
Bit rate : 5 000 Kbps
Width : 960 pixels
Height : 576 pixels
Display aspect ratio : 1.667
Frame rate : 59.997 fps
Color space : YUV
Chroma subsampling : 4:2:0
Bit depth : 8 bits
Scan type : Progressive
Bits/(Pixel*Frame) : 0.151
Stream size : 3.38 GiB (94%)
Title : R.G HD-Films by Tiberiumsun69
Writing library : x264 core 146 r2538 121396c
Encoding settings : cabac=1 / ref=4 / deblock=1:0:0 / analyse=0x3:0x113 / me=umh / subme=11 / psy=1 / psy_rd=1.00:0.10 / mixed_ref=1 / me_range=32 / chroma_me=1 / trellis=2 / 8x8dct=1 / cqm=0 / deadzone=21,11 / fast_pskip=0 / chroma_qp_offset=-3 / threads=12 / lookahead_threads=1 / sliced_threads=0 / nr=0 / decimate=1 / interlaced=0 / bluray_compat=0 / constrained_intra=0 / bframes=3 / b_pyramid=2 / b_adapt=2 / b_bias=0 / direct=3 / weightb=1 / open_gop=0 / weightp=2 / keyint=600 / keyint_min=59 / scenecut=40 / intra_refresh=0 / rc_lookahead=60 / rc=2pass / mbtree=1 / bitrate=5000 / ratetol=1.0 / qcomp=0.60 / qpmin=0 / qpmax=69 / qpstep=4 / cplxblur=20.0 / qblur=0.5 / vbv_maxrate=50000 / vbv_bufsize=62500 / nal_hrd=none / filler=0 / ip_ratio=1.40 / aq=1:1.00
Language : English
Default : Yes
Forced : No
Audio
ID : 2
Format : AC-3
Format/Info : Audio Coding 3
Format profile : Dolby Digital
Mode extension : CM (complete main)
Codec ID : A_AC3
Duration : 1h 38mn
Bit rate mode : Constant
Bit rate : 192 Kbps
Channel(s) : 2 channels
Channel positions : Front: L R
Sampling rate : 48.0 KHz
Bit depth : 16 bits
Compression mode : Lossy
Stream size : 136 MiB (4%)
Title : Многоголосый, закадровый
Language : Russian
Default : Yes
Forced : No
Menu
00:00:00.000 : en:Chapter 1
00:09:05.250 : en:Chapter 2
00:19:15.791 : en:Chapter 3
00:29:17.583 : en:Chapter 4
00:34:08.166 : en:Chapter 5
00:41:00.625 : en:Chapter 6
00:49:50.750 : en:Chapter 7
00:58:50.750 : en:Chapter 8
01:06:41.208 : en:Chapter 9
01:14:09.708 : en:Chapter 10
01:25:01.208 : en:Chapter 11
01:34:18.916 : en:Chapter 12

Скриншоты

[Цитировать]
BOT2

Всем приятного просмотра!

[Цитировать]
vitamin2907

Ах, какая красота!!!!!! огромное при огромное вам спасибо!!!!!!!!!!!!!

[Цитировать]
BOT2

Огромное при огромное Вам пожалуйста:))))

[Цитировать]
toolmakerr

Просто великолепно !!! Спасибо за настоящее кино с настоящим качеством. BDRip-AVC очень хорошо смотрится в 60fps. А как Вы относитесь к Бондиане? У студии R.G. 25 кадр есть хорошая коллекция в BDRip-AVC и качество там очень хорошее. А вот если бы это в 60fps... Ещё раз большое спасибо !!! http://unionpeer.org/topic/175705-dzheyms-bond-agen...r-g-25-kadr.html

[Цитировать]
Tranch

toolmakerr,
Что мне подсказывает, авторы наверное всё же свои релизы делают, не основываясь на рипах :al:

[Цитировать]
toolmakerr

Tranch.
Я никому не навязываю своего мнения. Автор молодец! За что ему большое спасибо....

[Цитировать]
Tranch

toolmakerr,
Так вроде никто и не спорит :al:
 
Показать сообщения:    

Текущее время: 25-Июл 15:41

Часовой пояс: UTC + 3


Вы не можете начинать темы
Вы не можете отвечать на сообщения
Вы не можете редактировать свои сообщения
Вы не можете удалять свои сообщения
Вы не можете голосовать в опросах
Вы не можете прикреплять файлы к сообщениям
Вы не можете скачивать файлы